<?xml version="1.0" standalone="no"?>
<!DOCTYPE svg PUBLIC "-//W3C//DTD SVG 1.1//EN" "http://www.w3.org/Graphics/SVG/1.1/DTD/svg11.dtd" >
<svg xmlns="http://www.w3.org/2000/svg">
<metadata>
This is a custom SVG webfont generated by Font Squirrel.
Copyright   : 2007 Vic Fieger
</metadata>
<defs>
<font id="webfontpKfzaSWV" horiz-adv-x="634" >
<font-face units-per-em="2048" ascent="1638" descent="-410" />
<missing-glyph horiz-adv-x="389" />
<glyph unicode=" "  horiz-adv-x="389" />
<glyph unicode="&#x09;" horiz-adv-x="389" />
<glyph unicode="&#xa0;" horiz-adv-x="389" />
<glyph unicode="!" horiz-adv-x="247" />
<glyph unicode="&#x22;" horiz-adv-x="235" />
<glyph unicode="#" />
<glyph unicode="$" />
<glyph unicode="%" />
<glyph unicode="&#x26;" horiz-adv-x="485" />
<glyph unicode="'" horiz-adv-x="167" />
<glyph unicode="(" horiz-adv-x="335" />
<glyph unicode=")" horiz-adv-x="382" />
<glyph unicode="*" horiz-adv-x="491" />
<glyph unicode="+" />
<glyph unicode="," horiz-adv-x="235" />
<glyph unicode="-" horiz-adv-x="530" d="M66 811h24l60 -8h26h25h26h111l43 8v25v69l-19 170l-24 8l-68 -8h-26l-170 8l-8 -24l8 -35q-24 -127 -8 -213z" />
<glyph unicode="." horiz-adv-x="520" d="M47 145q61 -236 256 -127q123 143 -67 273h-17h17h-17q-131 -31 -172 -146z" />
<glyph unicode="/" horiz-adv-x="999" d="M-16 1802h505l-503 -1550zM403 -2l584 1804h37v-1456l-115 -348h-506z" />
<glyph unicode="0" horiz-adv-x="1177" d="M61 854q-37 -829 412 -866v69v170v43q-131 186 -86 420v35v43v51v43v27v43v24v35v35v35v86v24v25v27v69q-2 76 10 138q33 55 76 75v70v67v173h-35q-193 -63 -299 -205l-35 -137l-16 -87v-43l-8 -24q-4 -115 0 -156l-19 -69v-240zM602 254q8 -10 8 -27q-12 -123 19 -229 q176 27 299 143q27 94 69 164v35l9 25v34v27l8 35q-2 43 8 86v67l8 17v69v170v35v35v35v35v32v35v27v33q-14 47 -8 86q-16 76 -16 145q-18 86 -19 148q-18 47 -16 75q-123 182 -309 215l-33 -34v-267q51 -47 94 -75v-35v-113q8 -84 0 -145q0 -45 -8 -68l8 -59l-27 -43 l27 -19v-411l-8 -68q6 -33 0 -61l-27 -52q-63 -43 -86 -102z" />
<glyph unicode="1" horiz-adv-x="655" d="M37 1686q-12 -150 16 -252q141 49 150 10v-131q-6 -82 8 -148q-12 -70 0 -121l-8 -43q-6 -82 8 -147l-8 -43v-590q2 -84 -10 -145q6 -47 0 -78h26q45 -10 70 -10q86 -10 155 35q25 6 43 0l-10 61q-2 66 10 121l-10 24l10 27v27v59v37l-10 16q16 86 10 140v24v70v26 q6 92 -10 156q4 23 0 35v24v35l10 35v27v268v94v43v115v35v145v27v104q-16 10 -18 17h-145h-27h-104q-72 -90 -156 -129z" />
<glyph unicode="2" horiz-adv-x="1183" d="M74 1419l8 -24l24 -9h25l19 -18l24 -8l27 -8l14 -9l27 -8l110 -43q18 39 41 60q12 117 119 159l8 27v25v24q-12 29 -8 70v24v111l-51 33q-344 -82 -387 -406zM82 8l57 -8l27 8l24 -8q133 12 222 0h57h43h86h33h92h35l24 -8q111 18 187 8q2 16 16 16v27v33v26l8 168 q-16 59 -75 68l-33 -16q-90 -4 -146 8q-41 -12 -65 -8h-35l-35 8q-57 -12 -100 0q-96 -12 -168 8l-10 -16l-25 8q-119 -12 -211 8q-65 -185 -8 -330zM106 440l33 -16h27l16 6h51h33q12 -4 27 0q74 -18 119 -16l41 102l135 135l24 17l27 24l25 27l18 16l25 27q23 18 67 49 l17 27l18 16l25 16l16 17l24 16q37 72 87 111q217 567 -297 786h-25q-63 -233 84 -397q14 -113 -8 -211l-17 -16q-16 -49 -43 -103l-32 -49q-100 -98 -195 -127q-47 -61 -102 -78v-24l-60 -52q-18 -25 -41 -41q-47 -102 -119 -161q-2 -62 0 -101z" />
<glyph unicode="3" horiz-adv-x="1167" d="M39 463q-16 -305 258 -438l135 -43q25 51 37 94q-20 100 0 188v19q-137 119 -164 266l-51 6l-18 -16h-25q-63 -37 -121 -43zM39 1421l27 -8q45 -39 94 -67q76 -51 153 -52q37 158 162 213q0 66 19 113q-22 98 0 172q-51 35 -103 33q-305 -111 -352 -404zM469 891 q2 -57 16 -103q289 -31 162 -430q-57 -35 -86 -75v-172q-2 -63 0 -103q565 55 395 762q-33 33 -34 61q-63 51 -86 103q70 86 120 121q154 580 -344 770l-32 -43q14 -111 -9 -205q12 -35 17 -78q76 -35 94 -102v-51q-3 -74 0 -129q-70 -127 -197 -130z" />
<glyph unicode="4" horiz-adv-x="1234" d="M55 418q12 -8 17 -19h86h24h27h24h62q113 12 186 0l33 19v35l10 24l-10 189l-41 24q-70 -10 -121 8l27 27l8 16l19 27l16 6q45 86 92 146v34q4 33 18 52l-18 24v51l10 27v43v25v34v27l8 170l-43 25l-24 -35l-8 -51l-27 -25l-16 -43l-35 -35l-17 -43l-26 -41l-17 -43 q-47 -63 -67 -119l-27 -34q-16 -45 -51 -76q-68 -145 -119 -213v-70q-6 -112 0 -186zM618 1542q29 -94 17 -170v-59l8 -27l-8 -24q14 -76 8 -119v-205v-154l-8 -34v-553q-6 -109 16 -189l19 -8h32h25h35h153l19 27v32v35v33v145v27v100q57 18 100 19q-2 80 19 143 q2 72 -28 101.5t-91 19.5v59v27v33v26v41v27v35v24v170v35v35v25v153v111v35v145v25v102q-16 10 -19 16h-24l-170 9q-8 -8 -19 -9q-12 -72 -67 -86l-8 -32v-43l-9 -25q12 -41 0 -78z" />
<glyph unicode="5" horiz-adv-x="1200" d="M47 434q31 -309 287 -432q144 -78 145 146q0 56 -8 131q-127 90 -121 225l-26 43h-9h9h-17h8h-16h8h-8l-35 -19zM66 1022l8 -35l16 -8l19 -18q139 -80 215 -173h26q55 57 121 78l8 62q-20 100 10 188l-26 62l-27 -9q-22 -15 -43 -18v70v24l19 62v26q29 74 24 146l27 18 h51l35 8h43l35 -8l35 8l34 -8l27 8l25 -8q123 18 198 8q37 170 8 303l-86 17q-23 -8 -43 -8h-43h-268h-121h-24l-27 -9l-27 9q-125 -14 -182 -9v-61l10 -16q-16 -51 -10 -105l-16 -35l-17 -188l-10 -37v-59l-16 -121v-27zM575 874l105 -94v-26q16 -72 6 -138q12 -10 10 -18 v-137q-16 -59 -16 -121q-68 -35 -96 -96l8 -17v-59q-8 -84 -8 -158q409 -28 424 529q34 519 -400 639l-24 -62v-67z" />
<glyph unicode="6" horiz-adv-x="1177" d="M86 831q-37 -776 397 -831l9 27v24v27q10 133 0 217q-111 59 -130 172q-49 268 121 346l9 18l10 78q12 121 -27 207q-68 -49 -104 0v27v26q14 129 8 215q40 120 104 191v27l9 18v68l-9 139l-43 8q-8 -14 -16 -16q-113 -37 -182 -105l-11 -26l-8 -17l-16 -8l-8 -18 l-11 -19l-51 -102v-27l-16 -70v-24l-27 -131v-113q-37 -187 -8 -328zM604 35q23 -18 35 -35q375 135 365 512q49 455 -349 596l-32 -8v-62l-19 -96q25 -45 19 -94q143 -121 120 -303q12 -190 -139 -269v-241zM623 1593q141 -96 182 -252q90 53 172 70q84 287 -322 416 q-55 -119 -32 -234z" />
<glyph unicode="7" horiz-adv-x="1148" d="M47 1755l10 -33q-6 -121 9 -198l34 -8q27 8 60 8l43 -8q72 4 102 8h27l26 -8l68 8q80 -6 137 0l53 -8q-23 -70 -10 -121l53 -19q27 12 43 10q40 12 68 0h51q43 12 78 9q25 57 62 112v25q4 176 -19 293h-43h-43l-43 -8h-111l-18 8q-71 -9 -129 0h-25h-26h-27 q-88 -18 -153 0q-138 -37 -258 0l-9 -17v-34zM238 8l24 -8l43 8l19 -8h24q96 -8 164 0l43 43v27v102l27 156v24l8 35l8 70q2 37 18 86q27 143 60 231v27l8 35l18 24q4 63 25 113q8 90 51 155q8 61 35 103l-16 43q-57 8 -105 8q-86 -25 -162 -8q-16 -27 -34 -35 q-8 -106 -52 -188l-10 -43l-8 -35l-25 -121l-10 -35q-20 -45 -33 -94v-35q-25 -80 -26 -121q-29 -80 -33 -161l-18 -70q-4 -82 -27 -137q0 -70 -8 -105q-12 -45 -8 -86z" />
<glyph unicode="8" horiz-adv-x="1222" d="M233 782q-188 -698 367 -778q82 219 -68 369q-16 104 -16 196q16 72 16 127q58 61 111 86q2 20 10 35v51q-23 80 0 146l-26 59q-49 23 -76 60v102l-8 51l8 43q-10 66 0 113l59 51l17 92q-6 59 0 103q-8 49 0 94q-45 31 -76 43l-19 -27h-24l-180 -92q-252 -432 43 -770 l-27 -16zM713 14l24 9q31 -39 70 -35q45 25 86 26q33 29 68 33q421 439 24 854q23 63 78 94q12 45 43 70q154 588 -334 760q-12 -20 -43 -51v-52q16 -98 0 -170q20 -27 27 -53q57 -18 75 -67q49 -238 -83 -351l-11 -59l-8 -51l8 -27l-8 -24q20 -90 19 -138q131 -131 94 -307 q-25 -125 -121 -196q23 -154 -8 -265z" />
<glyph unicode="9" horiz-adv-x="1118" d="M68 307q102 -201 280 -264q82 -39 113 12t8 193l-35 16q-109 92 -162 213h-43q-80 -72 -161 -102v-68zM68 1161q25 -389 385 -444q31 156 8 264q-98 63 -129 164v143v27v102q51 86 121 146v32l8 19q-14 35 -8 67v25v113l-70 16q-27 -12 -59 -16q-35 -35 -76 -43 q-2 -20 -10 -35q-53 -49 -84 -68q-119 -264 -86 -512zM545 68l26 -60q184 57 289 178q31 96 70 156q0 68 16 111v43v32l8 35v27v41q18 170 11 266v68v24v27v24v105l-11 49v27l-8 24v103l-16 18l-8 102q-16 41 -19 68q-27 43 -33 86q-125 162 -290 205l-25 -27 q18 -39 -10 -76q25 -86 0 -153q31 -20 26 -51q150 -94 119 -275q12 -160 -119 -221q-10 -72 -10 -111q16 -59 0 -102l10 -51q12 -12 17 -35q51 25 94 27q51 -338 -127 -504l16 -27q-1 -94 -26 -153z" />
<glyph unicode=":" horiz-adv-x="229" />
<glyph unicode=";" horiz-adv-x="235" />
<glyph unicode="&#x3c;" horiz-adv-x="993" d="M94 897l301 901h504l-319 -901l319 -899h-504z" />
<glyph unicode="=" />
<glyph unicode="&#x3e;" horiz-adv-x="993" d="M94 -2l322 899l-322 901h506l299 -901l-299 -899h-506z" />
<glyph unicode="?" horiz-adv-x="565" />
<glyph unicode="@" horiz-adv-x="577" />
<glyph unicode="A" horiz-adv-x="1228" d="M18 29l19 -27h24h27l111 -8q75 27 128 27q5 0 11 -1l6 33l10 19v23q0 75 17 130v35l8 16l8 78v27l10 25v67q26 56 26 108q0 10 -1 21l-8 35v27q-8 10 -8 24l-19 172l-8 35v35l-8 16v35q-18 50 -18 89q0 11 1 22q-17 70 -16 121v16l-62 16l-24 -43v-33l-19 -69l-34 -180 q-25 -86 -25 -146l-18 -35v-43l-25 -118l-16 -62l-11 -49l-16 -121q-37 -111 -43 -188q-27 -66 -27 -129zM362 1769l17 -51v-53l18 -49l9 -62q23 -25 16 -51q10 -55 16 -67l11 -43l8 -62l16 -43l8 -16q0 -80 19 -129l8 -43l8 -33q6 -55 27 -94q0 -53 8 -86q9 -47 9 -90 q0 -12 -1 -23q10 -10 8 -16l11 -19q16 -88 32 -137l-67 -24q1 -12 0 -24q0 -101 -43 -183l8 -60q14 -8 16 -16q26 2 49 2q52 0 91 -10q16 -178 59 -277h43l25 -8q25 9 52 9q8 0 17 -1h27l153 -8v61l-34 138l-9 16l-8 137l-26 33v37l-17 68q-8 8 -8 18v25q-20 74 -27 137 q-27 96 -34 145l-9 60q-25 75 -25 141q0 7 1 14q-45 86 -43 162q-19 61 -20 102q0 10 1 19q-8 10 -8 24q-6 14 -16 19v43l-10 35l-9 67q-8 10 -8 27l-8 33v43q-27 106 -27 180q-28 18 -43 43q-47 -12 -89 -12q-76 0 -134 38q-20 -35 -54 -35q-3 0 -5 1z" />
<glyph unicode="B" horiz-adv-x="1140" d="M18 41l17 -27q71 -27 139 -26q79 0 156 35l18 61l-8 70l-10 53v67l10 35l-10 19q-3 42 -3 81q0 83 13 152l-10 53q0 45 -8 68l8 53l10 78q-11 56 -11 95q0 9 1 18v53l10 16q-5 32 -5 58.5t5 46.5q-10 31 -10 51l10 27v165l-10 35v33v53l-8 35l8 27v24l10 35 q-5 58 -5 108.5t5 92.5q-16 12 -18 26h-70q-39 16 -94 25q-84 -10 -140 -43v-27q9 -85 9 -153v-37v-234l-9 -18q10 -8 9 -16q-2 -46 -2 -86t2 -72v-156q0 -70 -9 -104l9 -86l-9 -174v-590zM487 266l9 -26l8 -27v-94q-1 -19 -1 -37q0 -60 9 -102q377 41 418 391q23 91 23 178 q0 149 -66 282l-19 9l-120 78q68 59 120 69q2 41 43 51q41 174 41 312q0 424 -387 505q-28 -19 -50 -19l-11 1q16 -58 16 -117q0 -41 -8 -82q10 -28 10 -55q0 -12 -2 -22q133 -74 133 -200q0 -34 -10 -71q5 -30 5 -57q0 -148 -144 -184v-62q5 -58 4.5 -105.5t-4.5 -84.5 q140 -61 139 -192q0 -32 -8 -68q6 -33 6 -63q0 -149 -154 -208z" />
<glyph unicode="C" horiz-adv-x="1157" d="M18 662q0 -72 9 -119v-94q0 -9 -1 -19q0 -114 35 -205q132 -175 308 -239l77 16l9 18q-9 43 -9.5 81.5t9.5 72.5q-12 109 -86 170l-17 148q5 40 5 74.5t-5 62.5l8 24l-8 33l8 27v67v172q-1 16 0 30q0 49 9 83q-6 23 -6.5 44t6.5 40l-9 27v32l9 27q-12 71 -12 130 q0 32 3 58q33 76 103 95v32v27q0 74 -8 121q9 47 9 88q0 12 -1 22l-60 9q-9 -15 -18 -19l-25 -6l-43 -35h-24l-27 -8q-53 -37 -102 -51l-8 -27l-43 -43l-9 -16q-31 -80 -61 -121l-8 -59l-8 -52v-215l-9 -41l9 -34q-5 -26 -5 -49.5t5 -45.5v-196q-3 -35 -3 -64.5t3 -54.5z M565 12q23 -2 44 -2q259 0 333 309q25 82 26 160q0 46 -10 88l-24 19l-60 24l-153 52l-35 -60q9 -85 9 -152q0 -19 -1 -36q-41 -88 -121 -113l11 -16l-19 -25q4 -51 8 -70v-32q-9 -84 -8 -125q-1 -11 0 -21zM584 1491q66 -35 102 -94v-51q-2 -29 -2 -54q0 -57 10 -100l33 -8 l18 8q72 43 129 51q39 33 76 35q9 45 10 87q0 58 -18 110q-74 289 -342 350q-4 -20 -16 -27v-307z" />
<glyph unicode="D" horiz-adv-x="1122" d="M18 43l17 -35q58 -9 112 -9q105 0 197 36l8 26v25q-5 40 -4.5 74t4.5 63v35v94v27q-8 68 -7.5 123.5t7.5 99.5v43l-8 53l-8 43l16 33q-5 20 -4.5 38t4.5 32q-13 61 -13 116q0 33 5 64v35v43l8 35q-11 66 -10.5 124t10.5 107q-5 20 -4.5 38t4.5 32l-8 59q-1 32 -1 62 q0 120 19 206q-105 55 -207 55q-47 0 -94 -12l-18 17l-25 -60q14 -39 17 -59v-631q-2 -57 -2 -104t2 -84v-51v-121q-2 -32 -2 -61t2 -52q-10 -57 -10 -104q0 -21 2 -41v-35q2 -21 2 -40q0 -44 -11 -81v-25q6 -68 6 -126.5t-6 -106.5zM473 250l10 -27l9 -33q-5 -46 -5 -85 q0 -65 13 -113q444 33 444 725q0 81 -6 170q10 111 10 209q0 641 -432 729l-33 -51q13 -67 13 -129q0 -37 -4 -70q9 -33 8 -62v-16q74 -4 112 -43l9 -59v-293q1 -19 0 -37q0 -58 -9 -100l9 -62l-19 -33q20 -55 19 -96l-9 -33l9 -34v-35q2 -29 2 -58q0 -89 -21 -165l19 -54 q-43 -72 -121 -76z" />
<glyph unicode="E" horiz-adv-x="1142" d="M20 147q-1 -19 0 -36q0 -58 9 -101l51 -10l35 18h35l94 -18h86h284l25 -6h61h25h27q14 1 26 0q61 0 113 -10q8 14 16 16l8 27v43l9 26v27v172l10 24q-41 29 -80 35l-43 -8h-111h-26h-94h-35l-27 8h-24l-172 -8l18 68v26l6 62v153v156l27 -18h26h27h25q25 -2 46 -2t40 2 l24 -9q37 12 70 12q18 0 35 -3l34 34l9 19v67v172l-27 27h-59h-25h-27q-30 2 -57 2q-79 0 -149 -18l-43 16v35l18 24v35q6 43 6 105v24v27q-1 17 0 34q0 76 10 138h33q49 -3 86 -18q11 -1 23 -1q54 0 100 11q32 -2 58 -2t44 2q69 -9 125 -9t99 9l26 43l-10 35l10 59 q-12 31 -12 59.5t12 53.5q-12 18 -16 43h-53q-23 -2 -46 -2q-54 0 -100 10l-43 -8h-35q-34 5 -64 4.5t-56 -4.5h-25l-61 8l-19 -8q-49 10 -78 9q-13 0 -24 -1h-27l-24 8h-70h-25h-112q-31 -37 -52 -51q12 -73 12 -132q0 -32 -3 -59v-120q-8 -88 -9 -154v-1172z" />
<glyph unicode="F" horiz-adv-x="1124" d="M29 12l34 -16l25 8q50 9 95 9q61 0 112 -17l43 16v113v35v151v97v32v35v35v33v145v27v102l24 -8h35h33h62h153l35 59v35v25l-8 16q5 41 4.5 80.5t-4.5 75.5l-43 16q-51 -6 -100 -6q-101 0 -183 25l8 41l-8 26l8 43l-8 68v26l8 154q39 29 70 35l33 -8l43 8q38 -9 74 -9 q10 0 20 1h43h25h34l27 8l16 -8l17 8q66 -10 105 -10q17 0 32 2q43 106 43 203q0 43 -8 85l-51 19l-52 -8h-43h-26l-17 8q-32 -3 -58 -3t-44 3l-59 -8h-121h-27q-35 8 -68 8h-94l-24 8h-172l-33 -43v-1214v-43v-265l-10 -26l10 -43q-14 -76 -15 -133q1 -31 5 -56z" />
<glyph unicode="G" horiz-adv-x="1187" d="M96 1356q16 -29 19 -51v-43q-8 -31 0 -52q-1 -10 -1 -18q0 -31 9 -51q-8 -40 -8 -74t8 -63l-17 -17q14 -8 17 -16q-9 -57 -9 -106t9 -91q-15 -109 -15 -203q0 -500 424 -583q18 41 35 59v27q-21 83 -21 153q0 34 5 68q-49 51 -94 78v51l-8 51v41v53v41l-11 43v35v27v170 q-1 15 0 29q0 67 11 116q-15 68 -19 111v35v153q1 16 1 30q0 48 -9 81q23 43 35 78q78 35 86 102v27v24q-10 10 -11 17v69l-8 60l-110 8q-193 -113 -291 -283v-43l-17 -43q7 -22 8 -42q-1 -29 -18 -58zM662 31q27 -29 73 -30q68 0 174 62q43 -83 112 -82q20 0 42 7v110v35 v111v35v32v27q-1 16 -1 31q0 52 9 88q-12 54 -11 98q0 24 3 47l-8 27l8 16l-8 27l8 16v27l-8 16v22q0 73 -17 132q-17 -1 -32 -1q-66 0 -121 9q-48 -12 -97 -12q-26 0 -51 4l-75 -8v-256l18 -52h84q10 -50 10 -90q0 -126 -94 -168l-18 -59v-221zM680 1550q53 -35 84 -75 q-3 -49 -3 -93q0 -80 11 -139l62 -8l67 16q66 47 137 54q0 16 1 30q0 82 -17 140q-45 285 -309 350q-10 -8 -27 -8l-6 -19v-67q-6 -53 -6 -99.5t6 -81.5z" />
<glyph unicode="H" horiz-adv-x="1206" d="M47 457l10 -103q-12 -90 -12 -167q0 -100 21 -177l75 -16q10 8 27 8q27 2 51 0q29 3 56 3q49 0 90 -11l26 16v27l8 26q-5 65 -4.5 118.5t4.5 94.5q-10 45 -10 85q0 18 2 34v27v43v27v32v27v172h8q59 0 70 49v70v24v113q-20 29 -27 51q-29 -4 -51 8l8 62q2 18 2 35 q0 42 -10 84q4 23 0 34l8 25q-8 31 -7.5 59.5t7.5 53.5q-12 52 -11 98q0 25 3 47v25v26v35v25l-8 172q-84 16 -156 16q-106 -2 -180 -43v-840v-24v-94q-2 -29 -1 -57q0 -76 11 -140q-9 -46 -9 -85.5t9 -70.5zM612 766q30 -27 63 -27h7q5 -48 5 -89t-5 -75l8 -401 q-1 -23 -1 -43q0 -71 9 -121h27h35h145h25h102v27v26v111v35v145v25v102v27q-9 58 -9 109q0 15 1 28l8 51l-8 52v51l8 51v27l-8 16l8 35l-8 16l8 137l-8 35l8 60q-10 65 -10 122q0 25 2 50l8 24l-8 70l8 43q-11 101 -11 184.5t11 149.5h-323q-27 -53 -35 -86q9 -52 9 -99 t-9 -90v-86l8 -16v-27l-8 -137q6 -20 6 -37t-6 -31q20 -69 20 -126q0 -24 -4 -46q-59 -10 -78 -43v-118q5 -32 5 -60t-5 -51z" />
<glyph unicode="I" horiz-adv-x="548" d="M31 1620l10 -43q-6 -81 -6 -147.5t6 -116.5v-146v-32v-256l6 -17q-8 -43 -8 -78q0 -17 2 -32l6 -52l-6 -43l6 -51l-6 -43l6 -24v-486l10 -51q16 1 31 1q57 0 105 -17q111 27 169 26v68v24v170v35v146v24v103v24v27v110v25v27v24v60v34v154v119v43v84v26v144v43v24v27 l-8 16q0 47 8 70l-16 135q-56 17 -107 18q-37 0 -71 -10l-18 9q-29 -12 -56 -12q-14 0 -28 3l-35 -24v-86l10 -51z" />
<glyph unicode="J" horiz-adv-x="1126" d="M180 645q-35 -124 -35 -226q0 -338 383 -425l-8 16q23 56 23 114q0 32 -6 64v103l-60 33l-8 34l-8 33v27l8 33l-8 26l8 35l-8 25v92v86h-76q-113 -62 -205 -70zM647 256l17 -25l-9 -43q8 -10 9 -24q-1 -22 -1 -42q0 -67 9 -112q240 18 348 230l16 67v27v24v27v92v84v35 v25l8 59l-8 16v27v111v32v27v25v24v35v24v60v26v25q1 18 1 35q0 58 -9 100v43v25v35q2 32 2 55t-2 37v26q4 70 4 135q0 110 -12 195l-27 8q-43 -9 -84 -8q-57 0 -110 17q-49 -18 -76 -52q4 -49 8 -67l-8 -68v-119l8 -51l-8 -57q3 -32 3 -63.5t-3 -57.5l8 -109q0 -49 -8 -67 l8 -43l-8 -41l8 -51l-8 -43q6 -31 0 -60q6 -32 6 -64t-6 -63q2 -34 1.5 -63t-1.5 -55q4 -43 4 -80q0 -84 -20 -150l16 -24q-56 -50 -76 -111z" />
<glyph unicode="K" horiz-adv-x="1155" d="M35 639l8 -35v-373v-137q-1 -7 -1 -14q0 -59 44 -96q40 9 76.5 9t68.5 -9h25q47 16 94 16l8 61v25v35v24v25v86l-8 78l8 33q-1 16 0 31q0 50 9 87l-9 27v84v35v24v170q-2 32 -1.5 60.5t1.5 50.5v35q-9 40 -9 75.5t9 67.5l-8 27q2 31 2 55.5t-2 44.5q3 28 4 54 q0 49 -12 91l8 25v27v24v27q0 49 8 67q-4 29 -3 58q0 66 20 121q-28 23 -28 44q0 7 3 15h-26h-33h-27h-170l-59 -16v-486q-2 -37 -2 -69q0 -73 10 -125v-60l-8 -16q12 -8 8 -18v-25l-8 -170q6 -25 6 -48t-6 -46l8 -51zM494 782l18 -16q2 -47 25 -84l-9 -35l27 -35v-57 l16 -43v-59q33 -59 33 -119l-8 -27q16 -14 16 -35v-41l19 -26q2 -25 1.5 -45.5t-1.5 -38.5q29 -72 33 -137h51l26 16l60 -16l59 16q28 -6 51 -6t41 6l19 61l-19 41l-8 43l-24 138q-8 18 -9 41v26q-27 63 -26 103q-16 47 -17 92l-8 43q-25 88 -26 137v25q-8 10 -9 24l-8 27 l-8 24v35v25q-35 96 -35 183v13l19 17q10 115 41 186l10 35q18 55 24 92l9 27l18 16v27l6 32l10 27l52 246l-35 8h-27h-33h-59q-48 -5 -86 -5t-68 5l-16 -33l-8 -26l-19 -68q-2 -90 -41 -154q-2 -158 -77 -272v-33v-59l10 -27v-32q-11 -40 -11 -73q0 -7 1 -13v-222z" />
<glyph unicode="L" horiz-adv-x="1112" d="M29 33l24 -19l35 -8h35l33 -8h34h109h27h43h32h25h43h43h27h100h27q37 2 68 2q73 0 126 -10q57 14 76 24v27q3 54 3 98q0 82 -11 140l-33 16q-60 -12 -113.5 -12t-99.5 12q-26 -5 -49 -5q-38 0 -70 13q-42 -10 -78 -9q-60 0 -108 25v62v49v59v52l8 59l-8 51v25v35v67v25 v26q-1 21 -1 40q0 63 9 104l-16 59v60l8 51v24v27q-9 47 -9 93q0 13 1 26l8 24q-5 25 -5 45.5t5 38.5l-8 35q6 67 6 126q0 119 -25 212q-60 12 -109 12q-27 0 -51 -4q-8 -12 -18 -8h-68l-59 -8l-16 -41l8 -942l-8 -60q5 -41 4.5 -76.5t-4.5 -66.5q2 -45 1.5 -80.5 t-1.5 -62.5v-424z" />
<glyph unicode="M" horiz-adv-x="1355" d="M0 164q11 -55 11 -92q0 -25 -5 -45q14 -25 17 -43l24 -9l19 9l24 -11l27 9l94 -2q33 6 86 6l8 24l10 35v27l-16 59l4 170q-20 68 -39 105l-8 43l-16 34l-7 43q-23 49 -22 92v11l-18 18q-10 82 -39 137v27q-35 70 -56 145l-59 37h-8h8h-8l-19 -43l8 -43l-2 -59 q-14 -71 -13 -127q0 -18 1 -35l-4 -121l8 -43l6 -76l-2 -67l-8 -27l-2 -94q2 -17 2 -35q0 -30 -6 -59zM29 1591l24 -43l25 -59l6 -62l16 -18v-25q47 -92 56 -163q14 -29 16 -43l16 -43q33 -74 39 -138l25 -34v-27q25 -63 31 -102q51 -96 57 -183l25 -24l28 -140l19 -34 l6 -33l16 -27l8 -43l7 -51q10 -14 8 -27l16 -16v-35l16 -26l17 -60q4 -74 22 -121q55 4 86 15l19 59q-6 25 2 51l8 35l19 41v35l18 35l2 24v27l16 8l39 154l-8 59v29q0 87 14 157l-8 35l8 27q-8 35 -8 63q0 15 2 29l4 121v26l2 33l-8 27l8 24l-8 19q14 51 14 98q0 16 -1 31 q-31 16 -68 16l-10 -32l-17 -17l-10 -51l-18 -68l-47 -127l-41 19l-9 51q-23 45 -22 94q-43 80 -49 137l-6 52q-12 18 -17 45l-16 32l-31 148l-16 16v35q-43 102 -56 180l-59 2h-27q-43 0 -67 -6q-35 11 -75 11q-10 0 -19 -1l-35 -24zM858 1245q8 -45 8 -82q0 -19 -2 -37 l-2 -419q-1 -15 -1 -30q0 -41 7 -73q-6 -31 -5 -59q0 -37 9 -70q-12 -57 -12 -104q0 -39 8 -74l-8 -16q0 -166 27 -258q59 -8 114 -9q82 0 152 19l2 94v35q-4 10 2 24v27v25q-6 12 2 26v25l-8 69q12 63 12 103l-16 35l18 51l-8 51q0 43 -6 68q6 29 6 54q0 21 -4 40l10 35 l-8 16l2 94q-6 33 -6 86v43l2 68l2 35l-8 51l10 35q-4 27 0 41q-6 20 2 34q-4 25 -4 46q0 26 6 49q-10 27 -8 43l-6 16v27l2 102v27l2 24q2 35 2 68q0 55 -6 102l-19 10q-41 -5 -80 -4q-77 0 -141 19l-35 -35l-2 -25q-3 -36 -3 -69q0 -21 1 -41z" />
<glyph unicode="N" horiz-adv-x="1161" d="M8 795q9 -42 9 -81q0 -11 -1 -22q4 -32 5 -59q0 -33 -7 -60q6 -32 6 -58.5t-6 -49.5q10 -42 10 -71q0 -12 -1 -23v-27v-33v-143v-27v-102q63 -46 138 -46q20 0 40 3l170 24l8 68l8 18q-21 91 -20 174q0 87 22 166q-12 18 -16 41l-19 35l-8 43l-33 41v35l-24 27l-10 16 l-41 102l-35 60l-8 33q-78 109 -101 231q-31 34 -43 68l-33 8v-27q-13 -65 -13 -115q0 -24 3 -45q-1 -16 -1 -30q0 -50 9 -88l-8 -35q6 -26 0 -51zM10 1626l17 -84q51 -63 59 -119l8 -16l19 -18q20 -41 49 -84v-25q55 -65 67 -129l27 -43l25 -41l24 -43v-27q49 -61 68 -127 q12 -10 10 -16q6 -14 16 -51q47 -49 60 -111l24 -26l17 -33v-27q47 -63 59 -119l16 -24l9 -27q45 -66 59 -127l16 -16l9 -35q68 -115 86 -197q63 -45 123 -45q14 0 28 2q10 16 17 19l2 100l8 27l-8 16v213q-14 35 -17 60l-35 51q-22 40 -24 67q-39 47 -51 103 q-51 80 -76 143l-25 51l-16 52l-27 51l-16 35l-25 51l-26 51l-17 43l-16 49q-12 18 -25 51l-16 27v25q-39 53 -51 94l-19 43q-8 10 -8 24l-16 27q-20 45 -33 84q-8 10 -8 27q-12 10 -10 16q-59 96 -84 170l-25 8h-35l-59 -16q-45 11 -83.5 10.5t-70.5 -10.5v-60q3 -26 3 -49 t-3 -45zM596 1489q8 -25 8 -59l27 -25l8 -35l25 -24l8 -43l8 -35q14 -10 16 -25l19 -26q20 -45 33 -84l18 -19l6 -24l19 -17l32 -86l35 -76l-2 -75l70 -27l8 43l-8 111l-8 108v35v76v26q-9 29 -9 55v13q2 25 2 46t-2 40l2 143l-10 27q9 66 10 122q0 73 -16 132q-14 8 -16 16 h-27q-77 -10 -142 -10q-28 0 -53 2l-51 -6q-3 -25 -3 -46.5t3 -39.5q-10 -57 -10 -105q0 -21 2 -41z" />
<glyph unicode="O" horiz-adv-x="1150" d="M6 803q10 -24 10 -50q0 -10 -2 -20q0 -78 19 -135v-27l8 -116q18 -51 16 -86l9 -52q43 -113 51 -170l16 9q101 -156 266 -156q20 0 41 2l9 27q-6 43 -6.5 78.5t6.5 64.5q-2 25 -2 46.5t2 39.5l-19 51q-63 23 -84 68q-9 58 -9 108q0 14 1 27q1 16 1 30q0 49 -9 83l8 57 l-8 43v43v143l-11 113q3 35 3.5 65.5t-3.5 53.5v24l11 35q-10 14 -11 25v170l19 24l8 35q51 27 68 78q5 60 5 106q0 155 -57 164q-174 -61 -272 -178l-24 -59l-9 -25q-16 -113 -24 -145v-60l-10 -24l-9 -27v-205q-8 -75 -7.5 -138t7.5 -116zM543 1559q8 -25 8 -60 q76 -57 100 -135v-580l-16 -43l16 -24l-8 -43q10 -110 10 -194q0 -37 -2 -68q-41 -68 -84 -95v-32q-5 -43 -5 -84q0 -121 48 -215q186 59 287 213l18 86l17 49q0 84 26 153v25v51v27v35v24q12 104 13 174q0 41 -4 74l8 33l-8 35v32v35q-11 49 -11 85q0 19 2 34v33l-8 35 q-19 70 -19 129q0 8 1 16l-8 25l-9 18l-18 135q-31 35 -41 76q-129 139 -289 170l-24 -51q8 -51 8 -95.5t-8 -82.5z" />
<glyph unicode="P" horiz-adv-x="1095" d="M14 748l11 -52v-34v-336q-1 -49 -1 -92q0 -145 9 -234q53 -4 102 -4q115 0 199 20l8 62v67v68v70v26v172v35v156l-8 59v51v62l-8 16v27v35v153v35v43v147l-9 25l9 18q0 117 -19 197q15 71 15.5 135.5t-15.5 122.5l-24 19h-35h-27h-33h-155q-23 -93 -23 -169q0 -34 4 -65 v-567q-1 -17 0 -34q0 -76 11 -138zM498 989q-1 -27 -1 -51q0 -83 9 -137q415 9 415 412q0 25 -1 53q2 31 1 59q0 436 -389 500l-34 -33q4 -14 0 -27l8 -120q-9 -45 -9 -89q0 -12 1 -24q74 -4 112 -70v-94q9 -67 9 -123q0 -16 -1 -31q-23 -104 -120 -139v-86z" />
<glyph unicode="Q" horiz-adv-x="1236" d="M82 817q-13 -96 -13 -184q0 -443 341 -656l114 -10l17 90q-20 55 -21 107q0 40 12 78q-8 14 -8 26q-52 34 -80 80q1 17 1 33q0 76 -11 135l10 37l-10 35v35v114q5 40 5 73.5t-5 59.5l10 43v37v27v35v35v34v37v150v26v107q51 55 70 115l10 26q-17 72 -17 136.5t17 119.5 l-80 8q-197 -100 -301 -256l-10 -34l-43 -177l-8 -36v-486zM639 1470l80 -69v-45q12 -73 11 -134q0 -33 -3 -61l-8 -43v-61l8 -45l-8 -35v-45l8 -35v-27l-8 -26l8 -27q-1 -58 -1 -105q0 -159 9 -212v-12q0 -132 -69 -201v-62q1 -20 0 -39q0 -88 -11 -155q20 -23 27 -54 q59 -10 98 -34q18 -115 80 -179h35q43 78 106 107q29 53 70 80v53q-45 61 -70 131l9 29q51 59 71 104v27v27l17 45q-1 16 -1 30q0 68 11 119q-9 44 -9 86q0 58 17 109q-6 15 -18 18q10 14 18 16l-8 27q4 51 8 72q1 25 1 47q0 77 -9 129v72q0 39 -10 69l10 64l-10 24 q0 72 -8 107q-10 98 -27 151q-18 47 -27 88q-72 68 -106 123h-35l-8 19l-64 35l-16 10h-27l-26 8q-61 29 -107 35q-9 -42 -9 -77q0 -10 1 -19v-259z" />
<glyph unicode="R" horiz-adv-x="1161" d="M0 1765q9 -85 9 -153q0 -19 -1 -37l8 -113l-8 -35v-94q10 -79 10 -141q0 -27 -2 -49v-62q-1 -22 0 -43q0 -96 11 -172v-43l-11 -26l11 -27q-3 -41 -3 -75.5t3 -61.5l-11 -43q3 -34 3 -64.5t-3 -56.5v-43l11 -27v-405h32h35h27h35h155l27 59v174l-10 191l-9 59 q10 75 11 138q0 28 -2 53v59q-2 42 -2 82q0 109 12 186l-10 27v70q3 40 3 74t-3 63v61v33l-9 37v59l9 43l-9 27v24v35v35v27v35l9 16q-10 53 -10 98q0 20 1 39q-47 20 -86 27q-54 -12 -104 -12q-27 0 -51 4q-41 -25 -78 -27v-25zM475 1712q26 -50 26 -100q0 -31 -9 -64 q152 -73 152 -257q0 -94 -40 -218q-90 -27 -112 -86v-26q12 -78 11 -134q0 -21 -1 -39l16 -51q72 0 113 -53v-25q10 -41 10 -78q0 -17 -2 -34v-336q-3 -47 -3 -88q0 -76 11 -129h43l27 8l16 -8h27l35 8q48 -6 86.5 -6t68.5 6l8 27v24v35v27v174v51v35v43v24v70v172 q-16 39 -18 70l-25 59l-18 10q-51 51 -102 70v35q177 136 176 341q0 71 -21 150q-6 369 -372 398q-107 -11 -103 -105z" />
<glyph unicode="S" horiz-adv-x="1245" d="M41 442q90 -338 377 -454h26l62 -19q12 95 12 174.5t-12 141.5q-144 86 -166 288h-72q-6 0 -11 1q-217 0 -217 -116q0 -8 1 -16zM76 1509q-5 -50 -5 -97q0 -412 363 -566l10 -19l25 -8l10 -18l27 -8q49 -33 86 -70l61 -18q86 -78 115 -156q-12 -154 -131 -211l8 -131 q-3 -48 -3 -89q0 -76 11 -130q123 10 201 61q241 196 241 469q0 31 -3 64q-23 39 -27 80l-18 34l-78 158l-19 8q-57 68 -104 96l-35 35q-78 37 -123 88q-176 68 -289 193q0 59 11 104q23 39 51 72q6 39 18 70l-10 24l10 19q-1 13 -1 24q0 41 9 72q-10 66 -9 106q0 17 1 33 q-63 27 -104 27q-14 -8 -29 -8q-57 -68 -121 -88q-23 -29 -45 -43q-25 -57 -51 -97q-22 -47 -53 -80zM584 1790q9 -25 9 -53q0 -8 -1 -17v-200l35 -54q47 -27 69 -69q0 -49 11 -97l24 -18h27l35 8h34q16 10 27 10h27q90 18 149 19q12 40 12 77t-12 70q-121 326 -438 351z " />
<glyph unicode="T" horiz-adv-x="1177" d="M27 1774l8 -43v-95q0 -14 -1 -26q0 -69 17 -117l27 -8h24h27q11 1 22 0q49 0 89 -10q51 18 92 18l16 -18l10 -109l-10 -59v-426q5 -38 5 -72t-5 -64v-32q6 -32 6 -61t-6 -52q14 -89 15 -153q0 -35 -5 -66q12 -8 9 -19v-143q4 -23 4 -47q0 -41 -13 -80l33 -102q61 0 94 16 q46 -9 86 -9q70 0 125 28v59v59v25v35q-9 58 -9 107q0 14 1 28v76v59v51v51q1 18 1 36q0 59 -9 102l8 32v52l-8 32l8 52l-8 34v33v94v43v109v35v145v25v102l27 -8l32 8l19 -8h24h27h168q13 70 12 133q0 95 -28 180l-43 9l-33 -9h-70h-41h-26h-60h-24q-61 -10 -116 -10 q-24 0 -46 2h-25h-153h-93h-26q-24 1 -46 1q-73 0 -124 -9z" />
<glyph unicode="U" horiz-adv-x="1142" d="M31 1262q-1 -22 -1 -44q0 -98 11 -174q-4 -42 -4 -74q0 -52 10 -89v-27l-6 -27v-249q4 -12 0 -27v-27q7 -60 7 -121q0 -24 -1 -51q27 -53 27 -88q123 -236 348 -276q14 14 24 16q-5 48 -4.5 87.5t4.5 70.5q0 113 -69 164l-8 34v25v61l-9 27q11 46 11 86.5t-11 77.5l9 35 q-10 22 -11 47q0 11 2 22v27v113v24v27v112v52v53l-10 59q-1 11 0 23q0 52 10 98l-10 53q3 34 3 62t-3 51v27q0 41 10 67q-12 10 -10 19q4 40 4 79q0 66 -12 128h-35h-145h-27h-104v-25q-2 -34 -2 -63t2 -52v-413zM575 197q12 -10 11 -19v-24q-2 -40 -2 -75t2 -65 q18 -10 24 -26q211 84 314 260q10 43 24 59q2 59 19 123l-11 59v46v51v24v35l-8 148v26v27v155v35v27v33v155v35l-8 62l8 24v27l-8 18l8 27q-10 41 -10 78q0 17 2 32q4 43 4 83q0 94 -20 169l-19 9h-35h-24h-35h-158q-29 -51 -32 -95v-112q10 -39 9 -66q0 -11 -1 -20 q0 -90 -8 -140v-96l8 -51l8 -571q23 -113 27 -191l8 -43l-19 -8q-18 -90 -78 -148v-77z" />
<glyph unicode="V" horiz-adv-x="1150" d="M27 1712l34 -145q25 -80 25 -137l18 -68l17 -19q8 -43 8 -86q29 -72 35 -118q18 -96 43 -162v-53l16 -25v-51q8 -10 8 -27l35 -102l8 -78q10 -27 11 -43l16 -33l16 -96q10 -31 11 -49q17 -36 17 -87q0 -9 -1 -18q60 -121 61 -234q0 -15 -2 -30q18 -23 25 -51 q49 -8 94.5 -8t85.5 8l10 16q29 109 33 197q35 66 35 137l-16 60l-19 59q-14 37 -16 70q-23 57 -27 102l-16 70l-8 24l-27 121v35q-34 65 -43 129v24q-25 68 -25 130l-18 32v27q-12 14 -16 43l-9 24q-8 10 -8 27l-10 59q-17 39 -17 80q0 7 1 15l-17 26v25v27l-8 24 q-37 111 -51 199l-137 16q-8 -12 -19 -8q-18 1 -35 1q-69 0 -118 -19v-60zM575 1300l17 -32q12 -18 16 -43q33 -88 35 -156l8 -25l35 -145l16 -16v-14q0 -89 35 -150l35 35l16 145q20 68 25 121l10 41l8 51l19 35l6 70v32l10 27l17 86l10 33v35q25 61 25 110q43 152 43 258 q-16 10 -19 17h-33h-26h-33h-156l-16 -33l-8 -35q-20 -63 -27 -121l-8 -24l-8 -52l-9 -59l-10 -37l-8 -59l-8 -17z" />
<glyph unicode="W" horiz-adv-x="1546" d="M27 1757l51 -196v-27l35 -162l8 -59l16 -53l10 -33l17 -78v-27l16 -57l10 -86q20 -39 25 -121q8 -18 8 -43l19 -35v-43q25 -68 24 -119l19 -34v-41q12 -41 16 -97l8 -32q27 -82 33 -146v-26q19 -38 19 -74q0 -5 -1 -10q19 -36 20 -65q0 -7 -1 -13q20 -59 41 -86 q38 9 73 9q10 0 21 -1v43l8 43l10 43l9 43l16 111l8 34l8 33q0 43 11 70l8 16q6 94 24 156v68q-23 55 -24 94q-16 49 -19 94l-41 137v35l-10 25q-8 10 -8 24v27l-8 59q-18 41 -27 86l-8 35v25q-16 57 -16 110l-17 37v25q-10 14 -10 24v27l-16 24q-12 160 -60 258h-26h-25 h-264zM592 1407l16 -70q12 -29 19 -59q29 -76 32 -145q43 -98 43 -181q14 -25 19 -51l16 -59l8 -51l19 -43l6 -52q10 -27 10 -43l17 -35l8 -43q33 -86 35 -145l34 -137l9 -17l16 -77l51 -197h103l16 35v51l10 35l8 35l9 24v27l10 33v26l6 25v26l10 60q25 117 25 188l-51 146 l-9 59q-15 22 -18 43l-16 70q-18 25 -25 51l-16 68q-23 57 -27 102q-12 18 -16 43q-23 68 -27 121q-10 10 -8 16v27q-18 23 -27 51l-8 33q-10 66 -25 94q-3 49 -18 86l-25 86v25l-26 110q-45 25 -84 27q-8 -12 -19 -17v-34l-16 -25l-8 -35l-19 -69l-16 -25v-43 q-41 -90 -51 -170zM1020 1450q14 -14 16 -27l27 -26v-33l16 -35l8 -43l9 -26q12 -35 16 -76q54 -90 54 -179q0 -13 -1 -26l33 -51l51 16v35v43q23 59 27 92l-8 19q25 60 25 121q0 8 -1 16q27 102 27 162l16 67v27q37 139 38 246q0 28 -3 53h-27h-264l-16 -33q5 -23 5 -47 t-5 -47q-18 -63 -19 -113q-25 -58 -24 -121v-14z" />
<glyph unicode="X" horiz-adv-x="1247" d="M27 39l49 -29l145 10q36 -8 73 -8q26 0 54 4q40 71 49 142q48 82 48 157q0 79 -52 150l-12 86q-33 92 -51 174l-35 8l-19 -33q-18 -25 -18 -51q-33 -76 -41 -125l-16 -24l-11 -43l-10 -25l-18 -24l-10 -52l-19 -32l-10 -17q-39 -119 -94 -201zM76 1749q41 -55 47 -104 q25 -37 31 -70l6 -27q29 -63 53 -139l25 -59l14 -62l22 -51l15 -70q29 -59 39 -94l14 -59l6 -35l17 -18l61 -191l14 -43l15 -43l8 -35l14 -35l25 -51l37 -112l6 -43q47 -74 53 -156q12 -8 16 -19l-2 -24l17 -27q27 -102 69 -174l43 -2h25l59 -4h35l60 -2q20 1 35 1 q32 0 59 -5l10 33l-8 26q-51 90 -53 164q-41 51 -45 113l-25 43q-23 74 -39 104l2 33q-43 57 -53 123l-25 43v27q-43 68 -45 120l-14 43l-17 43q-6 8 -6 27l-8 16l-6 27q-14 39 -23 86q-35 74 -47 121l-6 51q-35 67 -35 136v11q-16 6 -16 19q-51 94 -53 164q-61 96 -68 190 q-43 49 -92 64q-47 -15 -76 -15h-10q-45 9 -83 10q-52 0 -95 -18zM610 1530l17 -27l22 -86q23 -41 23 -78q16 -37 20 -69q57 -88 70 -172l26 -11l27 41l10 33l11 35l10 33l16 35l60 141l10 35l8 24l10 17q59 168 113 260q0 59 -39 86l-27 -17l-264 13q-23 -57 -47 -101 q-23 -109 -74 -168z" />
<glyph unicode="Y" horiz-adv-x="1204" d="M25 1772l8 -17v-24l43 -138q33 -86 41 -135l16 -35v-41q35 -74 51 -145q0 -20 11 -35l8 -33l8 -43l16 -43v-24q35 -51 35 -94l8 -33l17 -70l16 -16l10 -17q14 -104 52 -180v-92v-135v-43q0 -72 -11 -137l11 -17q-19 -109 -20 -166q0 -15 1 -28l51 -35h265l-9 16 q29 44 29 91q0 18 -4 36l-8 35l8 145l-8 33q8 35 8 70q-2 42 -2 77q0 81 10 136q-18 23 -24 41l-9 51l-16 59q-23 47 -27 86q-12 23 -16 60q-33 47 -35 84l-16 67q-10 10 -8 19v24q-25 51 -27 86q-29 74 -35 117l-16 27l-8 51q-23 55 -25 92q-8 10 -8 27l-10 26l-25 68v25 q-37 94 -43 161q-27 4 -35 9q-8 -8 -16 -9h-68l-16 9q-45 -5 -83.5 -5t-70.5 5zM567 1372l8 -57l11 -35l8 -27l16 -16v-25l27 -61l16 -68q8 -10 9 -24l8 -17q3 -74 24 -129q43 20 62 43l8 52l43 110q8 16 24 27l-8 33l51 137l9 24l8 33l35 94l8 33l8 27q8 14 16 16 q18 98 52 154q10 47 9 78q0 13 -1 24l-25 8h-26h-25q-57 -8 -107 -7.5t-90 7.5l-24 -24l-16 -70l-19 -33l-8 -34l-35 -60q-25 -135 -76 -213z" />
<glyph unicode="Z" horiz-adv-x="1130" d="M27 12l43 -10h24h60h26h27q30 1 50 1q51 0 85 -7l51 6q16 -10 19 -16q30 11 56 10h11l17 6q34 -2 64 -1.5t56 1.5h95q57 -9 106 -9t90 9l33 18v43l-8 25l8 27q-8 10 -8 24l8 51q-12 52 -12 99q0 25 4 47l-17 26l-24 -8h-37h-33h-24h-35l-27 -10q-51 0 -94 18 q-58 -11 -109 -10.5t-96 10.5v44l27 43l16 51l27 43l6 32l10 19l51 127q57 111 76 197l27 24v35l16 18v25l19 8q27 90 51 129l8 27l35 67q23 68 43 103q35 104 84 162v34l8 17v35v196l-49 17h-148h-51l-51 -9l-264 9h-35h-145h-27h-100l-27 -52v-280l111 -10l120 -9h25h27 h67q19 1 37 1q58 0 100 -9q-57 -166 -102 -239q-12 -74 -43 -127l-16 -54l-9 -24l-18 -8q-10 -49 -35 -86v-35q-29 -39 -59 -95q-12 -47 -35 -94l-6 -24l-19 -27q-16 -74 -59 -135q-25 -113 -86 -180l-16 -52v-86l8 -32l-8 -19v-59q-2 -20 -2 -37t2 -31z" />
<glyph unicode="[" horiz-adv-x="280" />
<glyph unicode="\" horiz-adv-x="999" d="M-16 346v1456h34l586 -1804h-506zM518 1802h506v-1550z" />
<glyph unicode="]" horiz-adv-x="311" />
<glyph unicode="^" horiz-adv-x="329" />
<glyph unicode="_" horiz-adv-x="489" />
<glyph unicode="`" horiz-adv-x="356" />
<glyph unicode="a" horiz-adv-x="1228" d="M18 29l19 -27h24h27l111 -8q75 27 128 27q5 0 11 -1l6 33l10 19v23q0 75 17 130v35l8 16l8 78v27l10 25v67q26 56 26 108q0 10 -1 21l-8 35v27q-8 10 -8 24l-19 172l-8 35v35l-8 16v35q-18 50 -18 89q0 11 1 22q-17 70 -16 121v16l-62 16l-24 -43v-33l-19 -69l-34 -180 q-25 -86 -25 -146l-18 -35v-43l-25 -118l-16 -62l-11 -49l-16 -121q-37 -111 -43 -188q-27 -66 -27 -129zM362 1769l17 -51v-53l18 -49l9 -62q23 -25 16 -51q10 -55 16 -67l11 -43l8 -62l16 -43l8 -16q0 -80 19 -129l8 -43l8 -33q6 -55 27 -94q0 -53 8 -86q9 -47 9 -90 q0 -12 -1 -23q10 -10 8 -16l11 -19q16 -88 32 -137l-67 -24q1 -12 0 -24q0 -101 -43 -183l8 -60q14 -8 16 -16q26 2 49 2q52 0 91 -10q16 -178 59 -277h43l25 -8q25 9 52 9q8 0 17 -1h27l153 -8v61l-34 138l-9 16l-8 137l-26 33v37l-17 68q-8 8 -8 18v25q-20 74 -27 137 q-27 96 -34 145l-9 60q-25 75 -25 141q0 7 1 14q-45 86 -43 162q-19 61 -20 102q0 10 1 19q-8 10 -8 24q-6 14 -16 19v43l-10 35l-9 67q-8 10 -8 27l-8 33v43q-27 106 -27 180q-28 18 -43 43q-47 -12 -89 -12q-76 0 -134 38q-20 -35 -54 -35q-3 0 -5 1z" />
<glyph unicode="b" horiz-adv-x="1140" d="M18 41l17 -27q71 -27 139 -26q79 0 156 35l18 61l-8 70l-10 53v67l10 35l-10 19q-3 42 -3 81q0 83 13 152l-10 53q0 45 -8 68l8 53l10 78q-11 56 -11 95q0 9 1 18v53l10 16q-5 32 -5 58.5t5 46.5q-10 31 -10 51l10 27v165l-10 35v33v53l-8 35l8 27v24l10 35 q-5 58 -5 108.5t5 92.5q-16 12 -18 26h-70q-39 16 -94 25q-84 -10 -140 -43v-27q9 -85 9 -153v-37v-234l-9 -18q10 -8 9 -16q-2 -46 -2 -86t2 -72v-156q0 -70 -9 -104l9 -86l-9 -174v-590zM487 266l9 -26l8 -27v-94q-1 -19 -1 -37q0 -60 9 -102q377 41 418 391q23 91 23 178 q0 149 -66 282l-19 9l-120 78q68 59 120 69q2 41 43 51q41 174 41 312q0 424 -387 505q-28 -19 -50 -19l-11 1q16 -58 16 -117q0 -41 -8 -82q10 -28 10 -55q0 -12 -2 -22q133 -74 133 -200q0 -34 -10 -71q5 -30 5 -57q0 -148 -144 -184v-62q5 -58 4.5 -105.5t-4.5 -84.5 q140 -61 139 -192q0 -32 -8 -68q6 -33 6 -63q0 -149 -154 -208z" />
<glyph unicode="c" horiz-adv-x="1157" d="M18 662q0 -72 9 -119v-94q0 -9 -1 -19q0 -114 35 -205q132 -175 308 -239l77 16l9 18q-9 43 -9.5 81.5t9.5 72.5q-12 109 -86 170l-17 148q5 40 5 74.5t-5 62.5l8 24l-8 33l8 27v67v172q-1 16 0 30q0 49 9 83q-6 23 -6.5 44t6.5 40l-9 27v32l9 27q-12 71 -12 130 q0 32 3 58q33 76 103 95v32v27q0 74 -8 121q9 47 9 88q0 12 -1 22l-60 9q-9 -15 -18 -19l-25 -6l-43 -35h-24l-27 -8q-53 -37 -102 -51l-8 -27l-43 -43l-9 -16q-31 -80 -61 -121l-8 -59l-8 -52v-215l-9 -41l9 -34q-5 -26 -5 -49.5t5 -45.5v-196q-3 -35 -3 -64.5t3 -54.5z M565 12q23 -2 44 -2q259 0 333 309q25 82 26 160q0 46 -10 88l-24 19l-60 24l-153 52l-35 -60q9 -85 9 -152q0 -19 -1 -36q-41 -88 -121 -113l11 -16l-19 -25q4 -51 8 -70v-32q-9 -84 -8 -125q-1 -11 0 -21zM584 1491q66 -35 102 -94v-51q-2 -29 -2 -54q0 -57 10 -100l33 -8 l18 8q72 43 129 51q39 33 76 35q9 45 10 87q0 58 -18 110q-74 289 -342 350q-4 -20 -16 -27v-307z" />
<glyph unicode="d" horiz-adv-x="1122" d="M18 43l17 -35q58 -9 112 -9q105 0 197 36l8 26v25q-5 40 -4.5 74t4.5 63v35v94v27q-8 68 -7.5 123.5t7.5 99.5v43l-8 53l-8 43l16 33q-5 20 -4.5 38t4.5 32q-13 61 -13 116q0 33 5 64v35v43l8 35q-11 66 -10.5 124t10.5 107q-5 20 -4.5 38t4.5 32l-8 59q-1 32 -1 62 q0 120 19 206q-105 55 -207 55q-47 0 -94 -12l-18 17l-25 -60q14 -39 17 -59v-631q-2 -57 -2 -104t2 -84v-51v-121q-2 -32 -2 -61t2 -52q-10 -57 -10 -104q0 -21 2 -41v-35q2 -21 2 -40q0 -44 -11 -81v-25q6 -68 6 -126.5t-6 -106.5zM473 250l10 -27l9 -33q-5 -46 -5 -85 q0 -65 13 -113q444 33 444 725q0 81 -6 170q10 111 10 209q0 641 -432 729l-33 -51q13 -67 13 -129q0 -37 -4 -70q9 -33 8 -62v-16q74 -4 112 -43l9 -59v-293q1 -19 0 -37q0 -58 -9 -100l9 -62l-19 -33q20 -55 19 -96l-9 -33l9 -34v-35q2 -29 2 -58q0 -89 -21 -165l19 -54 q-43 -72 -121 -76z" />
<glyph unicode="e" horiz-adv-x="1142" d="M20 147q-1 -19 0 -36q0 -58 9 -101l51 -10l35 18h35l94 -18h86h284l25 -6h61h25h27q14 1 26 0q61 0 113 -10q8 14 16 16l8 27v43l9 26v27v172l10 24q-41 29 -80 35l-43 -8h-111h-26h-94h-35l-27 8h-24l-172 -8l18 68v26l6 62v153v156l27 -18h26h27h25q25 -2 46 -2t40 2 l24 -9q37 12 70 12q18 0 35 -3l34 34l9 19v67v172l-27 27h-59h-25h-27q-30 2 -57 2q-79 0 -149 -18l-43 16v35l18 24v35q6 43 6 105v24v27q-1 17 0 34q0 76 10 138h33q49 -3 86 -18q11 -1 23 -1q54 0 100 11q32 -2 58 -2t44 2q69 -9 125 -9t99 9l26 43l-10 35l10 59 q-12 31 -12 59.5t12 53.5q-12 18 -16 43h-53q-23 -2 -46 -2q-54 0 -100 10l-43 -8h-35q-34 5 -64 4.5t-56 -4.5h-25l-61 8l-19 -8q-49 10 -78 9q-13 0 -24 -1h-27l-24 8h-70h-25h-112q-31 -37 -52 -51q12 -73 12 -132q0 -32 -3 -59v-120q-8 -88 -9 -154v-1172z" />
<glyph unicode="f" horiz-adv-x="1124" d="M29 12l34 -16l25 8q50 9 95 9q61 0 112 -17l43 16v113v35v151v97v32v35v35v33v145v27v102l24 -8h35h33h62h153l35 59v35v25l-8 16q5 41 4.5 80.5t-4.5 75.5l-43 16q-51 -6 -100 -6q-101 0 -183 25l8 41l-8 26l8 43l-8 68v26l8 154q39 29 70 35l33 -8l43 8q38 -9 74 -9 q10 0 20 1h43h25h34l27 8l16 -8l17 8q66 -10 105 -10q17 0 32 2q43 106 43 203q0 43 -8 85l-51 19l-52 -8h-43h-26l-17 8q-32 -3 -58 -3t-44 3l-59 -8h-121h-27q-35 8 -68 8h-94l-24 8h-172l-33 -43v-1214v-43v-265l-10 -26l10 -43q-14 -76 -15 -133q1 -31 5 -56z" />
<glyph unicode="g" horiz-adv-x="1187" d="M96 1356q16 -29 19 -51v-43q-8 -31 0 -52q-1 -10 -1 -18q0 -31 9 -51q-8 -40 -8 -74t8 -63l-17 -17q14 -8 17 -16q-9 -57 -9 -106t9 -91q-15 -109 -15 -203q0 -500 424 -583q18 41 35 59v27q-21 83 -21 153q0 34 5 68q-49 51 -94 78v51l-8 51v41v53v41l-11 43v35v27v170 q-1 15 0 29q0 67 11 116q-15 68 -19 111v35v153q1 16 1 30q0 48 -9 81q23 43 35 78q78 35 86 102v27v24q-10 10 -11 17v69l-8 60l-110 8q-193 -113 -291 -283v-43l-17 -43q7 -22 8 -42q-1 -29 -18 -58zM662 31q27 -29 73 -30q68 0 174 62q43 -83 112 -82q20 0 42 7v110v35 v111v35v32v27q-1 16 -1 31q0 52 9 88q-12 54 -11 98q0 24 3 47l-8 27l8 16l-8 27l8 16v27l-8 16v22q0 73 -17 132q-17 -1 -32 -1q-66 0 -121 9q-48 -12 -97 -12q-26 0 -51 4l-75 -8v-256l18 -52h84q10 -50 10 -90q0 -126 -94 -168l-18 -59v-221zM680 1550q53 -35 84 -75 q-3 -49 -3 -93q0 -80 11 -139l62 -8l67 16q66 47 137 54q0 16 1 30q0 82 -17 140q-45 285 -309 350q-10 -8 -27 -8l-6 -19v-67q-6 -53 -6 -99.5t6 -81.5z" />
<glyph unicode="h" horiz-adv-x="1206" d="M47 457l10 -103q-12 -90 -12 -167q0 -100 21 -177l75 -16q10 8 27 8q27 2 51 0q29 3 56 3q49 0 90 -11l26 16v27l8 26q-5 65 -4.5 118.5t4.5 94.5q-10 45 -10 85q0 18 2 34v27v43v27v32v27v172h8q59 0 70 49v70v24v113q-20 29 -27 51q-29 -4 -51 8l8 62q2 18 2 35 q0 42 -10 84q4 23 0 34l8 25q-8 31 -7.5 59.5t7.5 53.5q-12 52 -11 98q0 25 3 47v25v26v35v25l-8 172q-84 16 -156 16q-106 -2 -180 -43v-840v-24v-94q-2 -29 -1 -57q0 -76 11 -140q-9 -46 -9 -85.5t9 -70.5zM612 766q30 -27 63 -27h7q5 -48 5 -89t-5 -75l8 -401 q-1 -23 -1 -43q0 -71 9 -121h27h35h145h25h102v27v26v111v35v145v25v102v27q-9 58 -9 109q0 15 1 28l8 51l-8 52v51l8 51v27l-8 16l8 35l-8 16l8 137l-8 35l8 60q-10 65 -10 122q0 25 2 50l8 24l-8 70l8 43q-11 101 -11 184.5t11 149.5h-323q-27 -53 -35 -86q9 -52 9 -99 t-9 -90v-86l8 -16v-27l-8 -137q6 -20 6 -37t-6 -31q20 -69 20 -126q0 -24 -4 -46q-59 -10 -78 -43v-118q5 -32 5 -60t-5 -51z" />
<glyph unicode="i" horiz-adv-x="548" d="M31 1620l10 -43q-6 -81 -6 -147.5t6 -116.5v-146v-32v-256l6 -17q-8 -43 -8 -78q0 -17 2 -32l6 -52l-6 -43l6 -51l-6 -43l6 -24v-486l10 -51q16 1 31 1q57 0 105 -17q111 27 169 26v68v24v170v35v146v24v103v24v27v110v25v27v24v60v34v154v119v43v84v26v144v43v24v27 l-8 16q0 47 8 70l-16 135q-56 17 -107 18q-37 0 -71 -10l-18 9q-29 -12 -56 -12q-14 0 -28 3l-35 -24v-86l10 -51z" />
<glyph unicode="j" horiz-adv-x="1126" d="M180 645q-35 -124 -35 -226q0 -338 383 -425l-8 16q23 56 23 114q0 32 -6 64v103l-60 33l-8 34l-8 33v27l8 33l-8 26l8 35l-8 25v92v86h-76q-113 -62 -205 -70zM647 256l17 -25l-9 -43q8 -10 9 -24q-1 -22 -1 -42q0 -67 9 -112q240 18 348 230l16 67v27v24v27v92v84v35 v25l8 59l-8 16v27v111v32v27v25v24v35v24v60v26v25q1 18 1 35q0 58 -9 100v43v25v35q2 32 2 55t-2 37v26q4 70 4 135q0 110 -12 195l-27 8q-43 -9 -84 -8q-57 0 -110 17q-49 -18 -76 -52q4 -49 8 -67l-8 -68v-119l8 -51l-8 -57q3 -32 3 -63.5t-3 -57.5l8 -109q0 -49 -8 -67 l8 -43l-8 -41l8 -51l-8 -43q6 -31 0 -60q6 -32 6 -64t-6 -63q2 -34 1.5 -63t-1.5 -55q4 -43 4 -80q0 -84 -20 -150l16 -24q-56 -50 -76 -111z" />
<glyph unicode="k" horiz-adv-x="1155" d="M35 639l8 -35v-373v-137q-1 -7 -1 -14q0 -59 44 -96q40 9 76.5 9t68.5 -9h25q47 16 94 16l8 61v25v35v24v25v86l-8 78l8 33q-1 16 0 31q0 50 9 87l-9 27v84v35v24v170q-2 32 -1.5 60.5t1.5 50.5v35q-9 40 -9 75.5t9 67.5l-8 27q2 31 2 55.5t-2 44.5q3 28 4 54 q0 49 -12 91l8 25v27v24v27q0 49 8 67q-4 29 -3 58q0 66 20 121q-28 23 -28 44q0 7 3 15h-26h-33h-27h-170l-59 -16v-486q-2 -37 -2 -69q0 -73 10 -125v-60l-8 -16q12 -8 8 -18v-25l-8 -170q6 -25 6 -48t-6 -46l8 -51zM494 782l18 -16q2 -47 25 -84l-9 -35l27 -35v-57 l16 -43v-59q33 -59 33 -119l-8 -27q16 -14 16 -35v-41l19 -26q2 -25 1.5 -45.5t-1.5 -38.5q29 -72 33 -137h51l26 16l60 -16l59 16q28 -6 51 -6t41 6l19 61l-19 41l-8 43l-24 138q-8 18 -9 41v26q-27 63 -26 103q-16 47 -17 92l-8 43q-25 88 -26 137v25q-8 10 -9 24l-8 27 l-8 24v35v25q-35 96 -35 183v13l19 17q10 115 41 186l10 35q18 55 24 92l9 27l18 16v27l6 32l10 27l52 246l-35 8h-27h-33h-59q-48 -5 -86 -5t-68 5l-16 -33l-8 -26l-19 -68q-2 -90 -41 -154q-2 -158 -77 -272v-33v-59l10 -27v-32q-11 -40 -11 -73q0 -7 1 -13v-222z" />
<glyph unicode="l" horiz-adv-x="1112" d="M29 33l24 -19l35 -8h35l33 -8h34h109h27h43h32h25h43h43h27h100h27q37 2 68 2q73 0 126 -10q57 14 76 24v27q3 54 3 98q0 82 -11 140l-33 16q-60 -12 -113.5 -12t-99.5 12q-26 -5 -49 -5q-38 0 -70 13q-42 -10 -78 -9q-60 0 -108 25v62v49v59v52l8 59l-8 51v25v35v67v25 v26q-1 21 -1 40q0 63 9 104l-16 59v60l8 51v24v27q-9 47 -9 93q0 13 1 26l8 24q-5 25 -5 45.5t5 38.5l-8 35q6 67 6 126q0 119 -25 212q-60 12 -109 12q-27 0 -51 -4q-8 -12 -18 -8h-68l-59 -8l-16 -41l8 -942l-8 -60q5 -41 4.5 -76.5t-4.5 -66.5q2 -45 1.5 -80.5 t-1.5 -62.5v-424z" />
<glyph unicode="m" horiz-adv-x="1355" d="M0 164q11 -55 11 -92q0 -25 -5 -45q14 -25 17 -43l24 -9l19 9l24 -11l27 9l94 -2q33 6 86 6l8 24l10 35v27l-16 59l4 170q-20 68 -39 105l-8 43l-16 34l-7 43q-23 49 -22 92v11l-18 18q-10 82 -39 137v27q-35 70 -56 145l-59 37h-8h8h-8l-19 -43l8 -43l-2 -59 q-14 -71 -13 -127q0 -18 1 -35l-4 -121l8 -43l6 -76l-2 -67l-8 -27l-2 -94q2 -17 2 -35q0 -30 -6 -59zM29 1591l24 -43l25 -59l6 -62l16 -18v-25q47 -92 56 -163q14 -29 16 -43l16 -43q33 -74 39 -138l25 -34v-27q25 -63 31 -102q51 -96 57 -183l25 -24l28 -140l19 -34 l6 -33l16 -27l8 -43l7 -51q10 -14 8 -27l16 -16v-35l16 -26l17 -60q4 -74 22 -121q55 4 86 15l19 59q-6 25 2 51l8 35l19 41v35l18 35l2 24v27l16 8l39 154l-8 59v29q0 87 14 157l-8 35l8 27q-8 35 -8 63q0 15 2 29l4 121v26l2 33l-8 27l8 24l-8 19q14 51 14 98q0 16 -1 31 q-31 16 -68 16l-10 -32l-17 -17l-10 -51l-18 -68l-47 -127l-41 19l-9 51q-23 45 -22 94q-43 80 -49 137l-6 52q-12 18 -17 45l-16 32l-31 148l-16 16v35q-43 102 -56 180l-59 2h-27q-43 0 -67 -6q-35 11 -75 11q-10 0 -19 -1l-35 -24zM858 1245q8 -45 8 -82q0 -19 -2 -37 l-2 -419q-1 -15 -1 -30q0 -41 7 -73q-6 -31 -5 -59q0 -37 9 -70q-12 -57 -12 -104q0 -39 8 -74l-8 -16q0 -166 27 -258q59 -8 114 -9q82 0 152 19l2 94v35q-4 10 2 24v27v25q-6 12 2 26v25l-8 69q12 63 12 103l-16 35l18 51l-8 51q0 43 -6 68q6 29 6 54q0 21 -4 40l10 35 l-8 16l2 94q-6 33 -6 86v43l2 68l2 35l-8 51l10 35q-4 27 0 41q-6 20 2 34q-4 25 -4 46q0 26 6 49q-10 27 -8 43l-6 16v27l2 102v27l2 24q2 35 2 68q0 55 -6 102l-19 10q-41 -5 -80 -4q-77 0 -141 19l-35 -35l-2 -25q-3 -36 -3 -69q0 -21 1 -41z" />
<glyph unicode="n" horiz-adv-x="1161" d="M8 795q9 -42 9 -81q0 -11 -1 -22q4 -32 5 -59q0 -33 -7 -60q6 -32 6 -58.5t-6 -49.5q10 -42 10 -71q0 -12 -1 -23v-27v-33v-143v-27v-102q63 -46 138 -46q20 0 40 3l170 24l8 68l8 18q-21 91 -20 174q0 87 22 166q-12 18 -16 41l-19 35l-8 43l-33 41v35l-24 27l-10 16 l-41 102l-35 60l-8 33q-78 109 -101 231q-31 34 -43 68l-33 8v-27q-13 -65 -13 -115q0 -24 3 -45q-1 -16 -1 -30q0 -50 9 -88l-8 -35q6 -26 0 -51zM10 1626l17 -84q51 -63 59 -119l8 -16l19 -18q20 -41 49 -84v-25q55 -65 67 -129l27 -43l25 -41l24 -43v-27q49 -61 68 -127 q12 -10 10 -16q6 -14 16 -51q47 -49 60 -111l24 -26l17 -33v-27q47 -63 59 -119l16 -24l9 -27q45 -66 59 -127l16 -16l9 -35q68 -115 86 -197q63 -45 123 -45q14 0 28 2q10 16 17 19l2 100l8 27l-8 16v213q-14 35 -17 60l-35 51q-22 40 -24 67q-39 47 -51 103 q-51 80 -76 143l-25 51l-16 52l-27 51l-16 35l-25 51l-26 51l-17 43l-16 49q-12 18 -25 51l-16 27v25q-39 53 -51 94l-19 43q-8 10 -8 24l-16 27q-20 45 -33 84q-8 10 -8 27q-12 10 -10 16q-59 96 -84 170l-25 8h-35l-59 -16q-45 11 -83.5 10.5t-70.5 -10.5v-60q3 -26 3 -49 t-3 -45zM596 1489q8 -25 8 -59l27 -25l8 -35l25 -24l8 -43l8 -35q14 -10 16 -25l19 -26q20 -45 33 -84l18 -19l6 -24l19 -17l32 -86l35 -76l-2 -75l70 -27l8 43l-8 111l-8 108v35v76v26q-9 29 -9 55v13q2 25 2 46t-2 40l2 143l-10 27q9 66 10 122q0 73 -16 132q-14 8 -16 16 h-27q-77 -10 -142 -10q-28 0 -53 2l-51 -6q-3 -25 -3 -46.5t3 -39.5q-10 -57 -10 -105q0 -21 2 -41z" />
<glyph unicode="o" horiz-adv-x="1150" d="M6 803q10 -24 10 -50q0 -10 -2 -20q0 -78 19 -135v-27l8 -116q18 -51 16 -86l9 -52q43 -113 51 -170l16 9q101 -156 266 -156q20 0 41 2l9 27q-6 43 -6.5 78.5t6.5 64.5q-2 25 -2 46.5t2 39.5l-19 51q-63 23 -84 68q-9 58 -9 108q0 14 1 27q1 16 1 30q0 49 -9 83l8 57 l-8 43v43v143l-11 113q3 35 3.5 65.5t-3.5 53.5v24l11 35q-10 14 -11 25v170l19 24l8 35q51 27 68 78q5 60 5 106q0 155 -57 164q-174 -61 -272 -178l-24 -59l-9 -25q-16 -113 -24 -145v-60l-10 -24l-9 -27v-205q-8 -75 -7.5 -138t7.5 -116zM543 1559q8 -25 8 -60 q76 -57 100 -135v-580l-16 -43l16 -24l-8 -43q10 -110 10 -194q0 -37 -2 -68q-41 -68 -84 -95v-32q-5 -43 -5 -84q0 -121 48 -215q186 59 287 213l18 86l17 49q0 84 26 153v25v51v27v35v24q12 104 13 174q0 41 -4 74l8 33l-8 35v32v35q-11 49 -11 85q0 19 2 34v33l-8 35 q-19 70 -19 129q0 8 1 16l-8 25l-9 18l-18 135q-31 35 -41 76q-129 139 -289 170l-24 -51q8 -51 8 -95.5t-8 -82.5z" />
<glyph unicode="p" horiz-adv-x="1095" d="M14 748l11 -52v-34v-336q-1 -49 -1 -92q0 -145 9 -234q53 -4 102 -4q115 0 199 20l8 62v67v68v70v26v172v35v156l-8 59v51v62l-8 16v27v35v153v35v43v147l-9 25l9 18q0 117 -19 197q15 71 15.5 135.5t-15.5 122.5l-24 19h-35h-27h-33h-155q-23 -93 -23 -169q0 -34 4 -65 v-567q-1 -17 0 -34q0 -76 11 -138zM498 989q-1 -27 -1 -51q0 -83 9 -137q415 9 415 412q0 25 -1 53q2 31 1 59q0 436 -389 500l-34 -33q4 -14 0 -27l8 -120q-9 -45 -9 -89q0 -12 1 -24q74 -4 112 -70v-94q9 -67 9 -123q0 -16 -1 -31q-23 -104 -120 -139v-86z" />
<glyph unicode="q" horiz-adv-x="1236" d="M82 817q-13 -96 -13 -184q0 -443 341 -656l114 -10l17 90q-20 55 -21 107q0 40 12 78q-8 14 -8 26q-52 34 -80 80q1 17 1 33q0 76 -11 135l10 37l-10 35v35v114q5 40 5 73.5t-5 59.5l10 43v37v27v35v35v34v37v150v26v107q51 55 70 115l10 26q-17 72 -17 136.5t17 119.5 l-80 8q-197 -100 -301 -256l-10 -34l-43 -177l-8 -36v-486zM639 1470l80 -69v-45q12 -73 11 -134q0 -33 -3 -61l-8 -43v-61l8 -45l-8 -35v-45l8 -35v-27l-8 -26l8 -27q-1 -58 -1 -105q0 -159 9 -212v-12q0 -132 -69 -201v-62q1 -20 0 -39q0 -88 -11 -155q20 -23 27 -54 q59 -10 98 -34q18 -115 80 -179h35q43 78 106 107q29 53 70 80v53q-45 61 -70 131l9 29q51 59 71 104v27v27l17 45q-1 16 -1 30q0 68 11 119q-9 44 -9 86q0 58 17 109q-6 15 -18 18q10 14 18 16l-8 27q4 51 8 72q1 25 1 47q0 77 -9 129v72q0 39 -10 69l10 64l-10 24 q0 72 -8 107q-10 98 -27 151q-18 47 -27 88q-72 68 -106 123h-35l-8 19l-64 35l-16 10h-27l-26 8q-61 29 -107 35q-9 -42 -9 -77q0 -10 1 -19v-259z" />
<glyph unicode="r" horiz-adv-x="1161" d="M0 1765q9 -85 9 -153q0 -19 -1 -37l8 -113l-8 -35v-94q10 -79 10 -141q0 -27 -2 -49v-62q-1 -22 0 -43q0 -96 11 -172v-43l-11 -26l11 -27q-3 -41 -3 -75.5t3 -61.5l-11 -43q3 -34 3 -64.5t-3 -56.5v-43l11 -27v-405h32h35h27h35h155l27 59v174l-10 191l-9 59 q10 75 11 138q0 28 -2 53v59q-2 42 -2 82q0 109 12 186l-10 27v70q3 40 3 74t-3 63v61v33l-9 37v59l9 43l-9 27v24v35v35v27v35l9 16q-10 53 -10 98q0 20 1 39q-47 20 -86 27q-54 -12 -104 -12q-27 0 -51 4q-41 -25 -78 -27v-25zM475 1712q26 -50 26 -100q0 -31 -9 -64 q152 -73 152 -257q0 -94 -40 -218q-90 -27 -112 -86v-26q12 -78 11 -134q0 -21 -1 -39l16 -51q72 0 113 -53v-25q10 -41 10 -78q0 -17 -2 -34v-336q-3 -47 -3 -88q0 -76 11 -129h43l27 8l16 -8h27l35 8q48 -6 86.5 -6t68.5 6l8 27v24v35v27v174v51v35v43v24v70v172 q-16 39 -18 70l-25 59l-18 10q-51 51 -102 70v35q177 136 176 341q0 71 -21 150q-6 369 -372 398q-107 -11 -103 -105z" />
<glyph unicode="s" horiz-adv-x="1245" d="M41 442q90 -338 377 -454h26l62 -19q12 95 12 174.5t-12 141.5q-144 86 -166 288h-72q-6 0 -11 1q-217 0 -217 -116q0 -8 1 -16zM76 1509q-5 -50 -5 -97q0 -412 363 -566l10 -19l25 -8l10 -18l27 -8q49 -33 86 -70l61 -18q86 -78 115 -156q-12 -154 -131 -211l8 -131 q-3 -48 -3 -89q0 -76 11 -130q123 10 201 61q241 196 241 469q0 31 -3 64q-23 39 -27 80l-18 34l-78 158l-19 8q-57 68 -104 96l-35 35q-78 37 -123 88q-176 68 -289 193q0 59 11 104q23 39 51 72q6 39 18 70l-10 24l10 19q-1 13 -1 24q0 41 9 72q-10 66 -9 106q0 17 1 33 q-63 27 -104 27q-14 -8 -29 -8q-57 -68 -121 -88q-23 -29 -45 -43q-25 -57 -51 -97q-22 -47 -53 -80zM584 1790q9 -25 9 -53q0 -8 -1 -17v-200l35 -54q47 -27 69 -69q0 -49 11 -97l24 -18h27l35 8h34q16 10 27 10h27q90 18 149 19q12 40 12 77t-12 70q-121 326 -438 351z " />
<glyph unicode="t" horiz-adv-x="1177" d="M27 1774l8 -43v-95q0 -14 -1 -26q0 -69 17 -117l27 -8h24h27q11 1 22 0q49 0 89 -10q51 18 92 18l16 -18l10 -109l-10 -59v-426q5 -38 5 -72t-5 -64v-32q6 -32 6 -61t-6 -52q14 -89 15 -153q0 -35 -5 -66q12 -8 9 -19v-143q4 -23 4 -47q0 -41 -13 -80l33 -102q61 0 94 16 q46 -9 86 -9q70 0 125 28v59v59v25v35q-9 58 -9 107q0 14 1 28v76v59v51v51q1 18 1 36q0 59 -9 102l8 32v52l-8 32l8 52l-8 34v33v94v43v109v35v145v25v102l27 -8l32 8l19 -8h24h27h168q13 70 12 133q0 95 -28 180l-43 9l-33 -9h-70h-41h-26h-60h-24q-61 -10 -116 -10 q-24 0 -46 2h-25h-153h-93h-26q-24 1 -46 1q-73 0 -124 -9z" />
<glyph unicode="u" horiz-adv-x="1142" d="M31 1262q-1 -22 -1 -44q0 -98 11 -174q-4 -42 -4 -74q0 -52 10 -89v-27l-6 -27v-249q4 -12 0 -27v-27q7 -60 7 -121q0 -24 -1 -51q27 -53 27 -88q123 -236 348 -276q14 14 24 16q-5 48 -4.5 87.5t4.5 70.5q0 113 -69 164l-8 34v25v61l-9 27q11 46 11 86.5t-11 77.5l9 35 q-10 22 -11 47q0 11 2 22v27v113v24v27v112v52v53l-10 59q-1 11 0 23q0 52 10 98l-10 53q3 34 3 62t-3 51v27q0 41 10 67q-12 10 -10 19q4 40 4 79q0 66 -12 128h-35h-145h-27h-104v-25q-2 -34 -2 -63t2 -52v-413zM575 197q12 -10 11 -19v-24q-2 -40 -2 -75t2 -65 q18 -10 24 -26q211 84 314 260q10 43 24 59q2 59 19 123l-11 59v46v51v24v35l-8 148v26v27v155v35v27v33v155v35l-8 62l8 24v27l-8 18l8 27q-10 41 -10 78q0 17 2 32q4 43 4 83q0 94 -20 169l-19 9h-35h-24h-35h-158q-29 -51 -32 -95v-112q10 -39 9 -66q0 -11 -1 -20 q0 -90 -8 -140v-96l8 -51l8 -571q23 -113 27 -191l8 -43l-19 -8q-18 -90 -78 -148v-77z" />
<glyph unicode="v" horiz-adv-x="1150" d="M27 1712l34 -145q25 -80 25 -137l18 -68l17 -19q8 -43 8 -86q29 -72 35 -118q18 -96 43 -162v-53l16 -25v-51q8 -10 8 -27l35 -102l8 -78q10 -27 11 -43l16 -33l16 -96q10 -31 11 -49q17 -36 17 -87q0 -9 -1 -18q60 -121 61 -234q0 -15 -2 -30q18 -23 25 -51 q49 -8 94.5 -8t85.5 8l10 16q29 109 33 197q35 66 35 137l-16 60l-19 59q-14 37 -16 70q-23 57 -27 102l-16 70l-8 24l-27 121v35q-34 65 -43 129v24q-25 68 -25 130l-18 32v27q-12 14 -16 43l-9 24q-8 10 -8 27l-10 59q-17 39 -17 80q0 7 1 15l-17 26v25v27l-8 24 q-37 111 -51 199l-137 16q-8 -12 -19 -8q-18 1 -35 1q-69 0 -118 -19v-60zM575 1300l17 -32q12 -18 16 -43q33 -88 35 -156l8 -25l35 -145l16 -16v-14q0 -89 35 -150l35 35l16 145q20 68 25 121l10 41l8 51l19 35l6 70v32l10 27l17 86l10 33v35q25 61 25 110q43 152 43 258 q-16 10 -19 17h-33h-26h-33h-156l-16 -33l-8 -35q-20 -63 -27 -121l-8 -24l-8 -52l-9 -59l-10 -37l-8 -59l-8 -17z" />
<glyph unicode="w" horiz-adv-x="1546" d="M27 1757l51 -196v-27l35 -162l8 -59l16 -53l10 -33l17 -78v-27l16 -57l10 -86q20 -39 25 -121q8 -18 8 -43l19 -35v-43q25 -68 24 -119l19 -34v-41q12 -41 16 -97l8 -32q27 -82 33 -146v-26q19 -38 19 -74q0 -5 -1 -10q19 -36 20 -65q0 -7 -1 -13q20 -59 41 -86 q38 9 73 9q10 0 21 -1v43l8 43l10 43l9 43l16 111l8 34l8 33q0 43 11 70l8 16q6 94 24 156v68q-23 55 -24 94q-16 49 -19 94l-41 137v35l-10 25q-8 10 -8 24v27l-8 59q-18 41 -27 86l-8 35v25q-16 57 -16 110l-17 37v25q-10 14 -10 24v27l-16 24q-12 160 -60 258h-26h-25 h-264zM592 1407l16 -70q12 -29 19 -59q29 -76 32 -145q43 -98 43 -181q14 -25 19 -51l16 -59l8 -51l19 -43l6 -52q10 -27 10 -43l17 -35l8 -43q33 -86 35 -145l34 -137l9 -17l16 -77l51 -197h103l16 35v51l10 35l8 35l9 24v27l10 33v26l6 25v26l10 60q25 117 25 188l-51 146 l-9 59q-15 22 -18 43l-16 70q-18 25 -25 51l-16 68q-23 57 -27 102q-12 18 -16 43q-23 68 -27 121q-10 10 -8 16v27q-18 23 -27 51l-8 33q-10 66 -25 94q-3 49 -18 86l-25 86v25l-26 110q-45 25 -84 27q-8 -12 -19 -17v-34l-16 -25l-8 -35l-19 -69l-16 -25v-43 q-41 -90 -51 -170zM1020 1450q14 -14 16 -27l27 -26v-33l16 -35l8 -43l9 -26q12 -35 16 -76q54 -90 54 -179q0 -13 -1 -26l33 -51l51 16v35v43q23 59 27 92l-8 19q25 60 25 121q0 8 -1 16q27 102 27 162l16 67v27q37 139 38 246q0 28 -3 53h-27h-264l-16 -33q5 -23 5 -47 t-5 -47q-18 -63 -19 -113q-25 -58 -24 -121v-14z" />
<glyph unicode="x" horiz-adv-x="1247" d="M27 39l49 -29l145 10q36 -8 73 -8q26 0 54 4q40 71 49 142q48 82 48 157q0 79 -52 150l-12 86q-33 92 -51 174l-35 8l-19 -33q-18 -25 -18 -51q-33 -76 -41 -125l-16 -24l-11 -43l-10 -25l-18 -24l-10 -52l-19 -32l-10 -17q-39 -119 -94 -201zM76 1749q41 -55 47 -104 q25 -37 31 -70l6 -27q29 -63 53 -139l25 -59l14 -62l22 -51l15 -70q29 -59 39 -94l14 -59l6 -35l17 -18l61 -191l14 -43l15 -43l8 -35l14 -35l25 -51l37 -112l6 -43q47 -74 53 -156q12 -8 16 -19l-2 -24l17 -27q27 -102 69 -174l43 -2h25l59 -4h35l60 -2q20 1 35 1 q32 0 59 -5l10 33l-8 26q-51 90 -53 164q-41 51 -45 113l-25 43q-23 74 -39 104l2 33q-43 57 -53 123l-25 43v27q-43 68 -45 120l-14 43l-17 43q-6 8 -6 27l-8 16l-6 27q-14 39 -23 86q-35 74 -47 121l-6 51q-35 67 -35 136v11q-16 6 -16 19q-51 94 -53 164q-61 96 -68 190 q-43 49 -92 64q-47 -15 -76 -15h-10q-45 9 -83 10q-52 0 -95 -18zM610 1530l17 -27l22 -86q23 -41 23 -78q16 -37 20 -69q57 -88 70 -172l26 -11l27 41l10 33l11 35l10 33l16 35l60 141l10 35l8 24l10 17q59 168 113 260q0 59 -39 86l-27 -17l-264 13q-23 -57 -47 -101 q-23 -109 -74 -168z" />
<glyph unicode="y" horiz-adv-x="1204" d="M25 1772l8 -17v-24l43 -138q33 -86 41 -135l16 -35v-41q35 -74 51 -145q0 -20 11 -35l8 -33l8 -43l16 -43v-24q35 -51 35 -94l8 -33l17 -70l16 -16l10 -17q14 -104 52 -180v-92v-135v-43q0 -72 -11 -137l11 -17q-19 -109 -20 -166q0 -15 1 -28l51 -35h265l-9 16 q29 44 29 91q0 18 -4 36l-8 35l8 145l-8 33q8 35 8 70q-2 42 -2 77q0 81 10 136q-18 23 -24 41l-9 51l-16 59q-23 47 -27 86q-12 23 -16 60q-33 47 -35 84l-16 67q-10 10 -8 19v24q-25 51 -27 86q-29 74 -35 117l-16 27l-8 51q-23 55 -25 92q-8 10 -8 27l-10 26l-25 68v25 q-37 94 -43 161q-27 4 -35 9q-8 -8 -16 -9h-68l-16 9q-45 -5 -83.5 -5t-70.5 5zM567 1372l8 -57l11 -35l8 -27l16 -16v-25l27 -61l16 -68q8 -10 9 -24l8 -17q3 -74 24 -129q43 20 62 43l8 52l43 110q8 16 24 27l-8 33l51 137l9 24l8 33l35 94l8 33l8 27q8 14 16 16 q18 98 52 154q10 47 9 78q0 13 -1 24l-25 8h-26h-25q-57 -8 -107 -7.5t-90 7.5l-24 -24l-16 -70l-19 -33l-8 -34l-35 -60q-25 -135 -76 -213z" />
<glyph unicode="z" horiz-adv-x="1130" d="M27 12l43 -10h24h60h26h27q30 1 50 1q51 0 85 -7l51 6q16 -10 19 -16q30 11 56 10h11l17 6q34 -2 64 -1.5t56 1.5h95q57 -9 106 -9t90 9l33 18v43l-8 25l8 27q-8 10 -8 24l8 51q-12 52 -12 99q0 25 4 47l-17 26l-24 -8h-37h-33h-24h-35l-27 -10q-51 0 -94 18 q-58 -11 -109 -10.5t-96 10.5v44l27 43l16 51l27 43l6 32l10 19l51 127q57 111 76 197l27 24v35l16 18v25l19 8q27 90 51 129l8 27l35 67q23 68 43 103q35 104 84 162v34l8 17v35v196l-49 17h-148h-51l-51 -9l-264 9h-35h-145h-27h-100l-27 -52v-280l111 -10l120 -9h25h27 h67q19 1 37 1q58 0 100 -9q-57 -166 -102 -239q-12 -74 -43 -127l-16 -54l-9 -24l-18 -8q-10 -49 -35 -86v-35q-29 -39 -59 -95q-12 -47 -35 -94l-6 -24l-19 -27q-16 -74 -59 -135q-25 -113 -86 -180l-16 -52v-86l8 -32l-8 -19v-59q-2 -20 -2 -37t2 -31z" />
<glyph unicode="{" horiz-adv-x="419" />
<glyph unicode="|" horiz-adv-x="200" />
<glyph unicode="}" horiz-adv-x="358" />
<glyph unicode="~" />
<glyph unicode="&#xa1;" horiz-adv-x="307" />
<glyph unicode="&#xa2;" />
<glyph unicode="&#xa3;" />
<glyph unicode="&#xa4;" horiz-adv-x="419" />
<glyph unicode="&#xa5;" />
<glyph unicode="&#xa6;" horiz-adv-x="200" />
<glyph unicode="&#xa7;" horiz-adv-x="419" />
<glyph unicode="&#xa8;" horiz-adv-x="370" />
<glyph unicode="&#xa9;" horiz-adv-x="712" />
<glyph unicode="&#xaa;" horiz-adv-x="401" />
<glyph unicode="&#xab;" horiz-adv-x="538" />
<glyph unicode="&#xac;" horiz-adv-x="1394" />
<glyph unicode="&#xad;" />
<glyph unicode="&#x2212;" />
<glyph unicode="&#xae;" horiz-adv-x="745" />
<glyph unicode="&#xaf;" horiz-adv-x="358" />
<glyph unicode="&#x2c9;" horiz-adv-x="358" />
<glyph unicode="&#xb0;" horiz-adv-x="284" />
<glyph unicode="&#xb1;" />
<glyph unicode="&#xb2;" horiz-adv-x="299" />
<glyph unicode="&#xb3;" horiz-adv-x="299" />
<glyph unicode="&#xb4;" horiz-adv-x="460" />
<glyph unicode="&#xb5;" horiz-adv-x="419" />
<glyph unicode="&#x3bc;" horiz-adv-x="419" />
<glyph unicode="&#xb6;" horiz-adv-x="448" />
<glyph unicode="&#xb7;" horiz-adv-x="206" />
<glyph unicode="&#x2219;" horiz-adv-x="206" />
<glyph unicode="&#xb8;" horiz-adv-x="319" />
<glyph unicode="&#xb9;" horiz-adv-x="299" />
<glyph unicode="&#xba;" horiz-adv-x="401" />
<glyph unicode="&#xbb;" horiz-adv-x="538" />
<glyph unicode="&#xbc;" horiz-adv-x="784" />
<glyph unicode="&#xbd;" horiz-adv-x="784" />
<glyph unicode="&#xbe;" horiz-adv-x="784" />
<glyph unicode="&#xbf;" horiz-adv-x="565" />
<glyph unicode="&#xc0;" horiz-adv-x="608" />
<glyph unicode="&#xc1;" horiz-adv-x="608" />
<glyph unicode="&#xc2;" horiz-adv-x="608" />
<glyph unicode="&#xc3;" horiz-adv-x="608" />
<glyph unicode="&#xc4;" horiz-adv-x="608" />
<glyph unicode="&#xc5;" horiz-adv-x="608" />
<glyph unicode="&#xc6;" horiz-adv-x="817" />
<glyph unicode="&#xc7;" horiz-adv-x="727" />
<glyph unicode="&#xc8;" horiz-adv-x="647" />
<glyph unicode="&#xc9;" horiz-adv-x="647" />
<glyph unicode="&#xca;" horiz-adv-x="647" />
<glyph unicode="&#xcb;" horiz-adv-x="647" />
<glyph unicode="&#xcc;" horiz-adv-x="233" />
<glyph unicode="&#xcd;" horiz-adv-x="233" />
<glyph unicode="&#xce;" horiz-adv-x="233" />
<glyph unicode="&#xcf;" horiz-adv-x="233" />
<glyph unicode="&#xd0;" horiz-adv-x="661" />
<glyph unicode="&#xd1;" horiz-adv-x="610" />
<glyph unicode="&#xd2;" horiz-adv-x="694" />
<glyph unicode="&#xd3;" horiz-adv-x="694" />
<glyph unicode="&#xd4;" horiz-adv-x="694" />
<glyph unicode="&#xd5;" horiz-adv-x="694" />
<glyph unicode="&#xd6;" horiz-adv-x="694" />
<glyph unicode="&#xd7;" />
<glyph unicode="&#xd8;" horiz-adv-x="694" />
<glyph unicode="&#xd9;" horiz-adv-x="659" />
<glyph unicode="&#xda;" horiz-adv-x="659" />
<glyph unicode="&#xdb;" horiz-adv-x="659" />
<glyph unicode="&#xdc;" horiz-adv-x="659" />
<glyph unicode="&#xdd;" horiz-adv-x="524" />
<glyph unicode="&#xde;" horiz-adv-x="575" />
<glyph unicode="&#xdf;" horiz-adv-x="497" />
<glyph unicode="&#xe0;" horiz-adv-x="368" />
<glyph unicode="&#xe1;" horiz-adv-x="368" />
<glyph unicode="&#xe2;" horiz-adv-x="368" />
<glyph unicode="&#xe3;" horiz-adv-x="368" />
<glyph unicode="&#xe4;" horiz-adv-x="368" />
<glyph unicode="&#xe5;" horiz-adv-x="368" />
<glyph unicode="&#xe6;" horiz-adv-x="745" />
<glyph unicode="&#xe7;" horiz-adv-x="509" />
<glyph unicode="&#xe8;" horiz-adv-x="485" />
<glyph unicode="&#xe9;" horiz-adv-x="485" />
<glyph unicode="&#xea;" horiz-adv-x="485" />
<glyph unicode="&#xeb;" horiz-adv-x="485" />
<glyph unicode="&#xec;" horiz-adv-x="233" />
<glyph unicode="&#xed;" horiz-adv-x="233" />
<glyph unicode="&#xee;" horiz-adv-x="233" />
<glyph unicode="&#xef;" horiz-adv-x="233" />
<glyph unicode="&#xf0;" horiz-adv-x="481" />
<glyph unicode="&#xf1;" horiz-adv-x="382" />
<glyph unicode="&#xf2;" horiz-adv-x="364" />
<glyph unicode="&#xf3;" horiz-adv-x="364" />
<glyph unicode="&#xf4;" horiz-adv-x="364" />
<glyph unicode="&#xf5;" horiz-adv-x="364" />
<glyph unicode="&#xf6;" horiz-adv-x="364" />
<glyph unicode="&#xf7;" />
<glyph unicode="&#xf8;" horiz-adv-x="364" />
<glyph unicode="&#xf9;" horiz-adv-x="339" />
<glyph unicode="&#xfa;" horiz-adv-x="339" />
<glyph unicode="&#xfb;" horiz-adv-x="339" />
<glyph unicode="&#xfc;" horiz-adv-x="339" />
<glyph unicode="&#xfd;" horiz-adv-x="391" />
<glyph unicode="&#xfe;" horiz-adv-x="346" />
<glyph unicode="&#xff;" horiz-adv-x="391" />
<glyph unicode="&#x152;" horiz-adv-x="952" />
<glyph unicode="&#x153;" horiz-adv-x="755" />
<glyph unicode="&#x178;" horiz-adv-x="524" />
<glyph unicode="&#x2c6;" horiz-adv-x="358" />
<glyph unicode="&#x2dc;" horiz-adv-x="481" />
<glyph unicode="&#x2000;" horiz-adv-x="925" />
<glyph unicode="&#x2001;" horiz-adv-x="1853" />
<glyph unicode="&#x2002;" horiz-adv-x="925" />
<glyph unicode="&#x2003;" horiz-adv-x="1853" />
<glyph unicode="&#x2004;" horiz-adv-x="616" />
<glyph unicode="&#x2005;" horiz-adv-x="462" />
<glyph unicode="&#x2006;" horiz-adv-x="307" />
<glyph unicode="&#x2007;" horiz-adv-x="307" />
<glyph unicode="&#x2008;" horiz-adv-x="229" />
<glyph unicode="&#x2009;" horiz-adv-x="370" />
<glyph unicode="&#x200a;" horiz-adv-x="102" />
<glyph unicode="&#x2010;" horiz-adv-x="530" d="M66 811h24l60 -8h26h25h26h111l43 8v25v69l-19 170l-24 8l-68 -8h-26l-170 8l-8 -24l8 -35q-24 -127 -8 -213z" />
<glyph unicode="&#x2011;" horiz-adv-x="530" d="M66 811h24l60 -8h26h25h26h111l43 8v25v69l-19 170l-24 8l-68 -8h-26l-170 8l-8 -24l8 -35q-24 -127 -8 -213z" />
<glyph unicode="&#x2012;" horiz-adv-x="530" d="M66 811h24l60 -8h26h25h26h111l43 8v25v69l-19 170l-24 8l-68 -8h-26l-170 8l-8 -24l8 -35q-24 -127 -8 -213z" />
<glyph unicode="&#x2013;" horiz-adv-x="681" />
<glyph unicode="&#x2014;" horiz-adv-x="892" />
<glyph unicode="&#x2018;" horiz-adv-x="235" />
<glyph unicode="&#x2019;" horiz-adv-x="239" />
<glyph unicode="&#x201a;" horiz-adv-x="233" />
<glyph unicode="&#x201c;" horiz-adv-x="339" />
<glyph unicode="&#x201d;" horiz-adv-x="299" />
<glyph unicode="&#x201e;" horiz-adv-x="401" />
<glyph unicode="&#x2022;" horiz-adv-x="385" />
<glyph unicode="&#x2026;" horiz-adv-x="790" />
<glyph unicode="&#x202f;" horiz-adv-x="370" />
<glyph unicode="&#x2039;" horiz-adv-x="319" />
<glyph unicode="&#x203a;" horiz-adv-x="319" />
<glyph unicode="&#x205f;" horiz-adv-x="462" />
<glyph unicode="&#x2122;" horiz-adv-x="679" />
<glyph unicode="&#xe000;" horiz-adv-x="1825" d="M0 1825h1825v-1825h-1825v1825z" />
<glyph unicode="&#xfb01;" horiz-adv-x="1673" d="M1155 1620l10 -43q-6 -81 -6 -147.5t6 -116.5v-146v-32v-256l6 -17q-8 -43 -8 -78q0 -17 2 -32l6 -52l-6 -43l6 -51l-6 -43l6 -24v-486l10 -51q16 1 31 1q57 0 105 -17q111 27 169 26v68v24v170v35v146v24v103v24v27v110v25v27v24v60v34v154v119v43v84v26v144v43v24v27 l-8 16q0 47 8 70l-16 135q-56 17 -107 18q-37 0 -71 -10l-18 9q-29 -12 -56 -12q-14 0 -28 3l-35 -24v-86l10 -51zM29 12l34 -16l25 8q50 9 95 9q61 0 112 -17l43 16v113v35v151v97v32v35v35v33v145v27v102l24 -8h35h33h62h153l35 59v35v25l-8 16q5 41 4.5 80.5t-4.5 75.5 l-43 16q-51 -6 -100 -6q-101 0 -183 25l8 41l-8 26l8 43l-8 68v26l8 154q39 29 70 35l33 -8l43 8q38 -9 74 -9q10 0 20 1h43h25h34l27 8l16 -8l17 8q66 -10 105 -10q17 0 32 2q43 106 43 203q0 43 -8 85l-51 19l-52 -8h-43h-26l-17 8q-32 -3 -58 -3t-44 3l-59 -8h-121h-27 q-35 8 -68 8h-94l-24 8h-172l-33 -43v-1214v-43v-265l-10 -26l10 -43q-14 -76 -15 -133q1 -31 5 -56z" />
<glyph unicode="&#xfb02;" horiz-adv-x="2236" d="M1153 33l24 -19l35 -8h35l33 -8h34h109h27h43h32h25h43h43h27h100h27q37 2 68 2q73 0 126 -10q57 14 76 24v27q3 54 3 98q0 82 -11 140l-33 16q-60 -12 -113.5 -12t-99.5 12q-26 -5 -49 -5q-38 0 -70 13q-42 -10 -78 -9q-60 0 -108 25v62v49v59v52l8 59l-8 51v25v35v67 v25v26q-1 21 -1 40q0 63 9 104l-16 59v60l8 51v24v27q-9 47 -9 93q0 13 1 26l8 24q-5 25 -5 45.5t5 38.5l-8 35q6 67 6 126q0 119 -25 212q-60 12 -109 12q-27 0 -51 -4q-8 -12 -18 -8h-68l-59 -8l-16 -41l8 -942l-8 -60q5 -41 4.5 -76.5t-4.5 -66.5q2 -45 1.5 -80.5 t-1.5 -62.5v-424zM29 12l34 -16l25 8q50 9 95 9q61 0 112 -17l43 16v113v35v151v97v32v35v35v33v145v27v102l24 -8h35h33h62h153l35 59v35v25l-8 16q5 41 4.5 80.5t-4.5 75.5l-43 16q-51 -6 -100 -6q-101 0 -183 25l8 41l-8 26l8 43l-8 68v26l8 154q39 29 70 35l33 -8l43 8 q38 -9 74 -9q10 0 20 1h43h25h34l27 8l16 -8l17 8q66 -10 105 -10q17 0 32 2q43 106 43 203q0 43 -8 85l-51 19l-52 -8h-43h-26l-17 8q-32 -3 -58 -3t-44 3l-59 -8h-121h-27q-35 8 -68 8h-94l-24 8h-172l-33 -43v-1214v-43v-265l-10 -26l10 -43q-14 -76 -15 -133 q1 -31 5 -56z" />
<glyph unicode="&#xfb03;" horiz-adv-x="2797" d="M2282 1620l10 -43q-6 -81 -6 -147.5t6 -116.5v-146v-32v-256l6 -17q-8 -43 -8 -78q0 -17 2 -32l6 -52l-6 -43l6 -51l-6 -43l6 -24v-486l10 -51q16 1 31 1q57 0 105 -17q111 27 169 26v68v24v170v35v146v24v103v24v27v110v25v27v24v60v34v154v119v43v84v26v144v43v24v27 l-8 16q0 47 8 70l-16 135q-56 17 -107 18q-37 0 -71 -10l-18 9q-29 -12 -56 -12q-14 0 -28 3l-35 -24v-86l10 -51zM1153 12l34 -16l25 8q50 9 95 9q61 0 112 -17l43 16v113v35v151v97v32v35v35v33v145v27v102l24 -8h35h33h62h153l35 59v35v25l-8 16q5 41 4.5 80.5t-4.5 75.5 l-43 16q-51 -6 -100 -6q-101 0 -183 25l8 41l-8 26l8 43l-8 68v26l8 154q39 29 70 35l33 -8l43 8q38 -9 74 -9q10 0 20 1h43h25h34l27 8l16 -8l17 8q66 -10 105 -10q17 0 32 2q43 106 43 203q0 43 -8 85l-51 19l-52 -8h-43h-26l-17 8q-32 -3 -58 -3t-44 3l-59 -8h-121h-27 q-35 8 -68 8h-94l-24 8h-172l-33 -43v-1214v-43v-265l-10 -26l10 -43q-14 -76 -15 -133q1 -31 5 -56zM29 12l34 -16l25 8q50 9 95 9q61 0 112 -17l43 16v113v35v151v97v32v35v35v33v145v27v102l24 -8h35h33h62h153l35 59v35v25l-8 16q5 41 4.5 80.5t-4.5 75.5l-43 16 q-51 -6 -100 -6q-101 0 -183 25l8 41l-8 26l8 43l-8 68v26l8 154q39 29 70 35l33 -8l43 8q38 -9 74 -9q10 0 20 1h43h25h34l27 8l16 -8l17 8q66 -10 105 -10q17 0 32 2q43 106 43 203q0 43 -8 85l-51 19l-52 -8h-43h-26l-17 8q-32 -3 -58 -3t-44 3l-59 -8h-121h-27 q-35 8 -68 8h-94l-24 8h-172l-33 -43v-1214v-43v-265l-10 -26l10 -43q-14 -76 -15 -133q1 -31 5 -56z" />
<glyph unicode="&#xfb04;" horiz-adv-x="3362" d="M2280 33l24 -19l35 -8h35l33 -8h34h109h27h43h32h25h43h43h27h100h27q37 2 68 2q73 0 126 -10q57 14 76 24v27q3 54 3 98q0 82 -11 140l-33 16q-60 -12 -113.5 -12t-99.5 12q-26 -5 -49 -5q-38 0 -70 13q-42 -10 -78 -9q-60 0 -108 25v62v49v59v52l8 59l-8 51v25v35v67 v25v26q-1 21 -1 40q0 63 9 104l-16 59v60l8 51v24v27q-9 47 -9 93q0 13 1 26l8 24q-5 25 -5 45.5t5 38.5l-8 35q6 67 6 126q0 119 -25 212q-60 12 -109 12q-27 0 -51 -4q-8 -12 -18 -8h-68l-59 -8l-16 -41l8 -942l-8 -60q5 -41 4.5 -76.5t-4.5 -66.5q2 -45 1.5 -80.5 t-1.5 -62.5v-424zM1153 12l34 -16l25 8q50 9 95 9q61 0 112 -17l43 16v113v35v151v97v32v35v35v33v145v27v102l24 -8h35h33h62h153l35 59v35v25l-8 16q5 41 4.5 80.5t-4.5 75.5l-43 16q-51 -6 -100 -6q-101 0 -183 25l8 41l-8 26l8 43l-8 68v26l8 154q39 29 70 35l33 -8 l43 8q38 -9 74 -9q10 0 20 1h43h25h34l27 8l16 -8l17 8q66 -10 105 -10q17 0 32 2q43 106 43 203q0 43 -8 85l-51 19l-52 -8h-43h-26l-17 8q-32 -3 -58 -3t-44 3l-59 -8h-121h-27q-35 8 -68 8h-94l-24 8h-172l-33 -43v-1214v-43v-265l-10 -26l10 -43q-14 -76 -15 -133 q1 -31 5 -56zM29 12l34 -16l25 8q50 9 95 9q61 0 112 -17l43 16v113v35v151v97v32v35v35v33v145v27v102l24 -8h35h33h62h153l35 59v35v25l-8 16q5 41 4.5 80.5t-4.5 75.5l-43 16q-51 -6 -100 -6q-101 0 -183 25l8 41l-8 26l8 43l-8 68v26l8 154q39 29 70 35l33 -8l43 8 q38 -9 74 -9q10 0 20 1h43h25h34l27 8l16 -8l17 8q66 -10 105 -10q17 0 32 2q43 106 43 203q0 43 -8 85l-51 19l-52 -8h-43h-26l-17 8q-32 -3 -58 -3t-44 3l-59 -8h-121h-27q-35 8 -68 8h-94l-24 8h-172l-33 -43v-1214v-43v-265l-10 -26l10 -43q-14 -76 -15 -133 q1 -31 5 -56z" />
</font>
</defs>
</svg>
